<?xml version="1.0" standalone="no"?>
<!DOCTYPE svg PUBLIC "-//W3C//DTD SVG 1.1//EN" "http://www.w3.org/Graphics/SVG/1.1/DTD/svg11.dtd" >
<svg xmlns="http://www.w3.org/2000/svg" xmlns:xlink="http://www.w3.org/1999/xlink" version="1.1">
<metadata>
Created by FontForge 20170731 at Thu Jul 27 12:32:12 2017
 By Aleksey,,,
Copyright c 2017 Hankook Tire Co.,Ltd. all rights reserved. Font designed by Sandoll Communications Inc.
</metadata>
<defs>
<font id="HankookTTFMedium" horiz-adv-x="600" >
  <font-face 
    font-family="Hankook TTF Medium"
    font-weight="500"
    font-stretch="normal"
    units-per-em="1000"
    panose-1="2 11 6 0 0 1 1 1 1 1"
    ascent="800"
    descent="-200"
    x-height="552"
    cap-height="750"
    bbox="-100 -284 1547 1146"
    underline-thickness="50"
    underline-position="-150"
    unicode-range="U+000D-206F"
  />
<missing-glyph horiz-adv-x="280" 
 />
    <glyph glyph-name=".notdef" horiz-adv-x="280" 
 />
    <glyph glyph-name=".null" horiz-adv-x="0" 
 />
    <glyph glyph-name="nonmarkingreturn" unicode="&#xd;" horiz-adv-x="280" 
 />
    <glyph glyph-name="NULL" horiz-adv-x="0" 
 />
    <glyph glyph-name="NULL" horiz-adv-x="0" 
 />
    <glyph glyph-name="space" unicode=" " horiz-adv-x="270" 
 />
    <glyph glyph-name="exclam" unicode="!" horiz-adv-x="288" 
d="M200 750l-16 -533h-80l-16 533h112zM84 125h120v-125h-120v125z" />
    <glyph glyph-name="quotedbl" unicode="&#x22;" horiz-adv-x="400" 
d="M167 750l-12 -247h-88l-12 247h112zM345 750l-12 -247h-88l-12 247h112z" />
    <glyph glyph-name="numbersign" unicode="#" horiz-adv-x="719" 
d="M595 750l-40 -189h134v-89h-153l-38 -178h135v-89h-154l-43 -205h-78l43 205h-159l-43 -205h-78l43 205h-134v89h153l38 178h-135v89h154l40 189h78l-40 -189h159l40 189h78zM261 294h159l38 178h-159z" />
    <glyph glyph-name="dollar" unicode="$" horiz-adv-x="672" 
d="M542 635q-39 11 -83.5 15t-83.5 5v-242l15 -3q61 -15 100.5 -33t61.5 -40.5t30.5 -51.5t8.5 -66q0 -42 -11.5 -77.5t-37 -61.5t-66.5 -43t-101 -21v-87h-67v85q-25 1 -53.5 3.5t-58.5 7t-59.5 11t-56.5 15.5v83q69 -20 124.5 -27.5t103.5 -8.5v243l-41 11
q-45 11 -79 26.5t-57 38t-34.5 53.5t-11.5 73q0 97 54.5 142t168.5 50v75h67v-75q47 -2 90.5 -7.5t76.5 -16.5v-76zM177 543q0 -25 7 -42t22 -29.5t38 -21.5t55 -17l9 -3v223q-40 -3 -65.5 -10.5t-40 -21t-20 -33t-5.5 -45.5zM498 212q0 24 -5.5 40.5t-19.5 29t-37.5 22.5
t-60.5 20v-224q36 3 60 12.5t38 23.5t19.5 33.5t5.5 42.5z" />
    <glyph glyph-name="percent" unicode="%" horiz-adv-x="847" 
d="M130 0l490 736h99l-490 -736h-99zM383 516q0 -72 -44.5 -111.5t-122.5 -39.5q-79 0 -122.5 39.5t-43.5 111.5v69q0 72 43.5 112t122.5 40q78 0 122.5 -40t44.5 -112v-69zM295 579q0 45 -20 61.5t-58 16.5t-58.5 -16.5t-20.5 -61.5v-57q0 -43 20.5 -60t58.5 -17t58 17
t20 60v57zM797 139q0 -72 -44.5 -111.5t-122.5 -39.5q-79 0 -122.5 39.5t-43.5 111.5v69q0 72 43.5 112t122.5 40q78 0 122.5 -40t44.5 -112v-69zM709 202q0 45 -20 61.5t-58 16.5t-58.5 -16.5t-20.5 -61.5v-57q0 -43 20.5 -60t58.5 -17t58 17t20 60v57z" />
    <glyph glyph-name="ampersand" unicode="&#x26;" horiz-adv-x="706" 
d="M183 541q0 -50 25.5 -80.5t87.5 -30.5h372v-85h-85v-317q-57 -22 -124 -30t-125 -8q-74 0 -125 16.5t-83 47t-46.5 72.5t-14.5 93q0 61 25 101.5t82 65.5q-27 12 -46 30t-30 39t-16 44.5t-5 46.5q0 102 64.5 151t191.5 49q53 0 103 -7t82 -18v-85q-40 11 -79.5 15.5
t-84.5 4.5q-48 0 -80.5 -6.5t-52 -20.5t-28 -36t-8.5 -52zM481 345h-190q-59 0 -88.5 -33t-29.5 -90q0 -33 7.5 -59t27 -44t53.5 -28t87 -10q32 0 70 3.5t63 11.5v249z" />
    <glyph glyph-name="quotesingle" unicode="'" horiz-adv-x="222" 
d="M167 750l-12 -247h-88l-12 247h112z" />
    <glyph glyph-name="parenleft" unicode="(" horiz-adv-x="351" 
d="M70 268v137q0 56 9.5 116.5t28 117.5t46.5 106.5t66 85.5h111q-44 -44 -73.5 -95.5t-47.5 -106.5t-25.5 -111t-7.5 -108v-147q0 -53 7.5 -109.5t25.5 -112.5t47.5 -108.5t73.5 -96.5h-111q-38 36 -66 86.5t-46.5 108.5t-28 119t-9.5 118z" />
    <glyph glyph-name="parenright" unicode=")" horiz-adv-x="351" 
d="M271.5 150q-9.5 -61 -28 -119t-47 -108.5t-65.5 -86.5h-111q44 44 73.5 96.5t47.5 108.5t25.5 112.5t7.5 109.5v147q0 52 -8 108t-26 111t-47.5 106.5t-72.5 95.5h111q37 -36 65.5 -85.5t47 -106.5t28 -117.5t9.5 -116.5v-137q0 -57 -9.5 -118z" />
    <glyph glyph-name="asterisk" unicode="*" horiz-adv-x="466" 
d="M199 495l-117 -81l-42 77l134 60l-134 60l42 77l114 -81l-8 142h90l-10 -142l116 81l42 -77l-135 -60l135 -60l-42 -77l-116 81l10 -142h-90z" />
    <glyph glyph-name="plus" unicode="+" horiz-adv-x="586" 
d="M344 600v-206h197v-94h-197v-216h-102v216h-197v94h197v206h102z" />
    <glyph glyph-name="comma" unicode="," horiz-adv-x="283" 
d="M85 125h125l-72 -262h-94z" />
    <glyph glyph-name="hyphen" unicode="-" horiz-adv-x="310" 
d="M30 238v100h250v-100h-250z" />
    <glyph glyph-name="period" unicode="." horiz-adv-x="278" 
d="M79 125h120v-125h-120v125z" />
    <glyph glyph-name="slash" unicode="/" horiz-adv-x="477" 
d="M0 -164l374 995h103l-374 -995h-103z" />
    <glyph glyph-name="zero" unicode="0" horiz-adv-x="630" 
d="M586 309q0 -162 -65 -240.5t-207 -78.5q-139 0 -204 79t-65 240v127q0 161 65 240t204 79q142 0 207 -79t65 -240v-127zM480 431q0 66 -9.5 110t-29.5 70t-51.5 37t-75.5 11q-42 0 -72.5 -11t-51 -37.5t-30 -70t-9.5 -109.5v-117q0 -67 9.5 -111t30 -70.5t51 -37
t72.5 -10.5q44 0 75.5 10.5t51.5 37t29.5 70.5t9.5 111v117z" />
    <glyph glyph-name="one" unicode="1" horiz-adv-x="630" 
d="M123 0v92h174v532l-180 -87v104l211 104h74v-653h160v-92h-439z" />
    <glyph glyph-name="two" unicode="2" horiz-adv-x="630" 
d="M62 0v93l288 277q29 29 48 51.5t30.5 43t16 41.5t4.5 47v9q0 52 -37.5 74.5t-121.5 22.5q-54 0 -108.5 -11.5t-96.5 -28.5v97q18 7 43 14t52.5 12.5t56.5 9t56 3.5q137 0 200 -49.5t63 -137.5v-12q0 -42 -9 -74t-27.5 -61.5t-46 -58.5t-64.5 -65l-212 -203h384v-94h-519z
" />
    <glyph glyph-name="three" unicode="3" horiz-adv-x="630" 
d="M199 336v90h112q69 0 97.5 30t28.5 92q0 63 -34.5 88t-112.5 25q-51 0 -105.5 -10.5t-99.5 -26.5v93q37 14 92.5 26t117.5 12q70 0 118 -13.5t76.5 -39.5t41 -64.5t12.5 -88.5q0 -22 -3.5 -46.5t-15 -47.5t-33 -42t-57.5 -30q72 -17 101.5 -60t29.5 -115
q0 -107 -64.5 -162.5t-205.5 -55.5q-33 0 -66 3t-63 8.5t-56 12t-45 14.5v95q21 -8 49 -15t58 -12t60.5 -8t57.5 -3q48 0 80 8.5t51.5 24.5t27.5 39t8 51q0 41 -10 66.5t-28.5 39t-46 18t-63.5 4.5h-110z" />
    <glyph glyph-name="four" unicode="4" horiz-adv-x="630" 
d="M19 164v90l336 491h132v-490h110v-91h-110v-164h-104v164h-364zM383 255v381l-255 -381h255z" />
    <glyph glyph-name="five" unicode="5" horiz-adv-x="630" 
d="M111 745h420v-95h-320l-4 -200q26 3 53 5.5t54 2.5q73 0 122.5 -16t79 -43.5t42 -64.5t12.5 -79v-52q0 -46 -17.5 -85t-52 -67.5t-85.5 -44.5t-117 -16q-72 0 -133.5 11.5t-98.5 26.5v96q44 -16 102 -27t124 -11q85 0 128.5 31t43.5 91v34q0 71 -44 97.5t-138 26.5
q-19 0 -42.5 -1.5t-47.5 -4t-48 -5.5t-45 -7z" />
    <glyph glyph-name="six" unicode="6" horiz-adv-x="630" 
d="M48 436q0 101 26.5 163.5t70 97t98.5 46.5t112 12q50 0 95.5 -9.5t79.5 -20.5v-95q-21 8 -44 13.5t-45.5 9t-43 5t-36.5 1.5q-49 0 -87.5 -9t-65 -33.5t-40.5 -69t-14 -116.5v-18q35 26 81.5 42t106.5 16q56 0 101.5 -13.5t78 -39.5t50 -65t17.5 -91v-44q0 -47 -15 -88
t-48 -72.5t-84 -49.5t-123 -18q-144 0 -207.5 85t-63.5 245v116zM327 373q-43 0 -88 -13t-85 -44q1 -64 10.5 -108t30 -71.5t51 -39.5t73.5 -12q46 0 77.5 11t51 29.5t27.5 43.5t8 53v37q0 33 -11.5 55t-32.5 35t-49.5 18.5t-62.5 5.5z" />
    <glyph glyph-name="seven" unicode="7" horiz-adv-x="630" 
d="M585 662l-329 -662h-112l329 650h-422v95h534v-83z" />
    <glyph glyph-name="eight" unicode="8" horiz-adv-x="630" 
d="M47 204q0 57 34 100t112 69q-63 20 -96 66t-33 109q0 97 64 152t196 55q133 0 197 -55t64 -152q0 -63 -33.5 -103.5t-93.5 -64.5q78 -26 111.5 -70t33.5 -104q0 -47 -15.5 -86.5t-48.5 -68t-84.5 -45t-123.5 -16.5q-80 0 -134.5 16.5t-87.5 45.5t-47.5 68t-14.5 84z
M299 338l-20 -8q-33 -13 -56 -25.5t-37.5 -28t-21.5 -34t-7 -43.5q0 -53 39 -84.5t128 -31.5t129 31.5t40 84.5q0 49 -32.5 80.5t-115.5 49.5zM173 548q0 -50 25 -75.5t87 -39.5l69 -16l39 19q21 10 36.5 20t26 22.5t16 29t5.5 40.5q0 26 -8 47t-26 36t-47 23t-72 8
q-42 0 -71 -8t-47 -23t-25.5 -36t-7.5 -47z" />
    <glyph glyph-name="nine" unicode="9" horiz-adv-x="630" 
d="M582 309q0 -101 -26.5 -163.5t-70 -97t-98.5 -46.5t-112 -12q-50 0 -95.5 9.5t-79.5 20.5v95q21 -8 44 -13.5t45.5 -9t43 -5t36.5 -1.5q49 0 87.5 9t65 33.5t40.5 69t14 116.5v18q-35 -26 -82 -42t-106 -16q-56 0 -102 13t-78 39.5t-49.5 65.5t-17.5 91v44q0 46 15 87.5
t48 73t84 49.5t123 18q144 0 207.5 -85t63.5 -245v-116zM303 372q43 0 87.5 13t85.5 43q-1 64 -10.5 108.5t-30 72t-51 39.5t-73.5 12q-47 0 -78 -11t-50.5 -30t-27.5 -43.5t-8 -52.5v-37q0 -33 11.5 -55t32.5 -35t49.5 -18.5t62.5 -5.5z" />
    <glyph glyph-name="colon" unicode=":" horiz-adv-x="278" 
d="M79 125h120v-125h-120v125zM79 503h120v-125h-120v125z" />
    <glyph glyph-name="semicolon" unicode=";" horiz-adv-x="278" 
d="M79 503h120v-125h-120v125zM85 125h125l-72 -262h-94z" />
    <glyph glyph-name="less" unicode="&#x3c;" horiz-adv-x="641" 
d="M208 371v-9l353 -168v-103l-471 234v83l471 234v-102z" />
    <glyph glyph-name="equal" unicode="=" horiz-adv-x="616" 
d="M60 414v97h496v-97h-496zM60 186v97h496v-97h-496z" />
    <glyph glyph-name="greater" unicode="&#x3e;" horiz-adv-x="641" 
d="M80 540v102l471 -234v-83l-471 -234v103l353 168v9z" />
    <glyph glyph-name="question" unicode="?" horiz-adv-x="517" 
d="M180 209v48q0 34 6 58t20 43t37.5 36.5t58.5 40.5q21 14 35 25.5t22.5 25t12 30t3.5 40.5q0 30 -6.5 50.5t-22.5 33t-43 18.5t-69 6q-51 0 -99.5 -12t-90.5 -29v92q35 16 86 29t108 13q67 0 113 -13.5t74 -39.5t40 -63t12 -85q0 -45 -10 -75.5t-25.5 -51.5t-34 -35
t-35.5 -26l-45.5 -32.5t-27 -23.5t-13 -24t-3.5 -33v-46h-103zM172 125h120v-125h-120v125z" />
    <glyph glyph-name="at" unicode="@" horiz-adv-x="1046" 
d="M875 -132q-74 -22 -150 -33.5t-169 -11.5q-245 0 -365.5 101.5t-120.5 291.5v121q0 96 30.5 170.5t87.5 125.5t139.5 77.5t187.5 26.5q229 0 345 -101t116 -293v-65q0 -46 -8.5 -88.5t-30 -75.5t-58.5 -52.5t-94 -19.5q-40 0 -74.5 16t-50.5 48q-27 -24 -74.5 -44
t-107.5 -20q-87 0 -127.5 45t-40.5 122v114q0 105 46.5 150t129.5 45q19 0 40.5 -3t41.5 -8t36.5 -12t26.5 -16v19l96 20v-334q0 -29 15.5 -47t44.5 -18q54 0 79.5 36.5t25.5 121.5v76q0 82 -25.5 140t-74 95.5t-118.5 55t-159 17.5q-79 0 -145.5 -18.5t-114.5 -57.5
t-74.5 -98t-26.5 -140v-125q0 -86 28 -147t80 -100t125.5 -57t165.5 -18q47 0 88.5 2.5t80 8t76.5 14t77 20.5v-77zM631 399q-10 6 -24 12.5t-30.5 12t-34.5 8.5t-36 3q-25 0 -43.5 -5.5t-30.5 -19.5t-18 -38t-6 -61v-77q0 -26 3.5 -46t13 -34t25.5 -21t41 -7q36 0 70.5 11
t69.5 34v228z" />
    <glyph glyph-name="A" unicode="A" horiz-adv-x="688" 
d="M678 0h-116l-75 211h-296l-74 -211h-107l275 750h103zM224 305h228l-69 195q-13 35 -23.5 67.5t-21.5 71.5q-11 -39 -22 -72t-23 -67z" />
    <glyph glyph-name="B" unicode="B" horiz-adv-x="657" 
d="M80 750h251q57 0 103 -7t78.5 -26t49.5 -53t17 -88v-38q0 -22 -4 -43.5t-14.5 -40.5t-28.5 -34.5t-47 -24.5q64 -13 93 -50t29 -91v-77q0 -54 -16 -88.5t-49.5 -54t-85 -27t-122.5 -7.5h-254v750zM186 347v-257h153q51 0 82.5 4.5t49 16t24 31.5t6.5 50v52
q0 56 -31.5 79.5t-114.5 23.5h-169zM186 660v-229h159q28 0 51.5 3.5t41 14t27 30.5t9.5 53v41q0 28 -6.5 45t-23 26.5t-44 12.5t-68.5 3h-146z" />
    <glyph glyph-name="C" unicode="C" horiz-adv-x="621" 
d="M570 647q-30 10 -80 15.5t-98 5.5q-79 0 -125 -18t-70 -48.5t-31 -71.5t-7 -86v-131q0 -47 5.5 -89t28.5 -73.5t69.5 -49.5t128.5 -18q40 0 89.5 4.5t100.5 20.5v-89q-22 -9 -48 -15t-52 -9.5t-51 -5t-45 -1.5q-92 0 -155.5 17t-103 55t-57 99t-17.5 150v122
q0 94 21 157.5t62.5 102t103.5 55t145 16.5q51 0 100 -5.5t86 -19.5v-90z" />
    <glyph glyph-name="D" unicode="D" horiz-adv-x="716" 
d="M80 0v750h258q94 0 156.5 -18t100 -58t53.5 -104t16 -155v-98q0 -90 -15 -151t-51.5 -98t-98.5 -52.5t-156 -15.5h-263zM186 655v-560h152q72 0 115.5 14t67 41t30.5 67t7 93v122q0 52 -7 93t-29.5 70t-65 44.5t-113.5 15.5h-157z" />
    <glyph glyph-name="E" unicode="E" horiz-adv-x="611" 
d="M557 750v-95h-371v-221h338v-93h-338v-246h385v-95h-491v750h477z" />
    <glyph glyph-name="F" unicode="F" horiz-adv-x="578" 
d="M548 750v-96h-362v-240h332v-96h-332v-318h-106v750h468z" />
    <glyph glyph-name="G" unicode="G" horiz-adv-x="692" 
d="M576 648q-16 5 -37.5 8.5t-45.5 6t-48.5 4t-45.5 1.5q-82 0 -130 -17.5t-72.5 -48t-31 -71.5t-6.5 -87v-133q0 -51 6.5 -93.5t31.5 -72.5t73.5 -46.5t132.5 -16.5q30 0 63 2.5t62 8.5v224h-156v91h260v-385q-26 -10 -57.5 -16.5t-64.5 -10.5t-64 -6t-56 -2
q-94 0 -158.5 17t-104.5 55t-57.5 99t-17.5 150v121q0 94 20 157.5t61.5 102.5t105.5 55.5t152 16.5q46 0 96 -5t89 -19v-90z" />
    <glyph glyph-name="H" unicode="H" horiz-adv-x="734" 
d="M654 750v-750h-106v341h-362v-341h-106v750h106v-313h362v313h106z" />
    <glyph glyph-name="I" unicode="I" horiz-adv-x="266" 
d="M186 0h-106v750h106v-750z" />
    <glyph glyph-name="J" unicode="J" horiz-adv-x="406" 
d="M330 750v-561q0 -51 -10 -88t-33.5 -62t-63 -37t-97.5 -12q-28 0 -62 5t-54 13v94q32 -10 61.5 -13t52.5 -3q51 0 75.5 23.5t24.5 85.5v555h106z" />
    <glyph glyph-name="K" unicode="K" horiz-adv-x="675" 
d="M359 382l296 -382h-128l-252 331h-89v-331h-106v750h106v-325h94l226 325h120z" />
    <glyph glyph-name="L" unicode="L" horiz-adv-x="583" 
d="M186 750v-652h367v-98h-473v750h106z" />
    <glyph glyph-name="M" unicode="M" horiz-adv-x="867" 
d="M787 0h-106v512q0 29 3 69.5t8 78.5q-8 -40 -14.5 -80t-17.5 -71l-168 -509h-114l-173 510q-11 31 -17 64.5t-14 84.5q3 -37 5.5 -77.5t2.5 -70.5v-511h-102v750h141l187 -537q10 -28 17 -55.5t14 -59.5q6 32 13.5 60t15.5 54l175 538h144v-750z" />
    <glyph glyph-name="N" unicode="N" horiz-adv-x="722" 
d="M642 0h-118l-293 498q-14 23 -26.5 51t-22.5 57v-606h-102v750h118l294 -498q15 -26 27.5 -52t20.5 -51v601h102v-750z" />
    <glyph glyph-name="O" unicode="O" horiz-adv-x="752" 
d="M702 323q0 -163 -84 -249t-242 -86t-242 86t-84 249v104q0 162 84 248.5t242 86.5t242 -86.5t84 -248.5v-104zM595 421q0 67 -15.5 113.5t-44 75.5t-69 42.5t-90.5 13.5t-90.5 -13.5t-69 -42.5t-44 -75.5t-15.5 -113.5v-92q0 -67 15.5 -113.5t44 -76t69 -42.5t90.5 -13
t90.5 13t69 42.5t44 76t15.5 113.5v92z" />
    <glyph glyph-name="P" unicode="P" horiz-adv-x="647" 
d="M80 750h274q60 0 107.5 -7.5t81 -29.5t51.5 -62t18 -104v-47q0 -61 -16 -100t-49.5 -62t-85 -32t-122.5 -9h-153v-297h-106v750zM186 657v-269h148q53 0 86.5 5t52.5 17t26 32.5t7 52.5v63q0 27 -6.5 46t-23 30.5t-45 17t-72.5 5.5h-173z" />
    <glyph glyph-name="Q" unicode="Q" horiz-adv-x="752" 
d="M702 323q0 -94 -28.5 -162.5t-83.5 -110.5l107 -153h-116l-77 109q-29 -8 -61 -13t-67 -5q-158 0 -242 86t-84 249v104q0 162 84 248.5t242 86.5t242 -86.5t84 -248.5v-104zM456 241l75 -107q31 29 47.5 77t16.5 118v92q0 67 -15.5 113.5t-44 75.5t-69 42.5t-90.5 13.5
t-90.5 -13.5t-69 -42.5t-44 -75.5t-15.5 -113.5v-92q0 -67 15.5 -113.5t44 -76t69 -42.5t90.5 -13q40 0 69 7l-105 150h116z" />
    <glyph glyph-name="R" unicode="R" horiz-adv-x="674" 
d="M80 750h277q60 0 107 -7.5t80 -29.5t50.5 -62t17.5 -104v-38q0 -84 -30.5 -128t-94.5 -61l157 -320h-111l-150 306h-197v-306h-106v750zM186 657v-260h148q51 0 84 5t52.5 17t27.5 32.5t8 52.5v54q0 53 -32.5 76t-114.5 23h-173z" />
    <glyph glyph-name="S" unicode="S" horiz-adv-x="603" 
d="M563 206q0 -46 -12.5 -85.5t-42.5 -68.5t-81 -45.5t-128 -16.5q-63 0 -123 8t-126 31v96q75 -26 138.5 -33.5t106.5 -7.5q49 0 80 8t49 23t25 36.5t7 47.5q0 25 -4 43.5t-17.5 32.5t-38.5 25.5t-67 22.5l-92 23q-47 12 -81.5 28.5t-57 41t-33.5 58t-11 79.5q0 51 14 90
t44.5 65t79.5 39t119 13q58 0 113.5 -6t90.5 -19v-88q-42 11 -91.5 15.5t-91.5 4.5q-54 0 -87.5 -6.5t-52 -20t-25.5 -35t-7 -52.5q0 -25 5 -42.5t18 -30.5t33.5 -22t52.5 -17l91 -23q68 -17 108.5 -37.5t61.5 -46t27 -57t6 -71.5z" />
    <glyph glyph-name="T" unicode="T" horiz-adv-x="622" 
d="M20 654v96h582v-96h-238v-654h-106v654h-238z" />
    <glyph glyph-name="U" unicode="U" horiz-adv-x="739" 
d="M177 750v-466q0 -56 11.5 -94t34.5 -61t59 -32.5t86 -9.5q51 0 88 9.5t60.5 32.5t34.5 61t11 94v466h107v-472q0 -149 -72.5 -219.5t-228.5 -70.5q-155 0 -226.5 70t-71.5 220v472h107z" />
    <glyph glyph-name="V" unicode="V" horiz-adv-x="681" 
d="M121 750l171 -474q14 -37 27.5 -73.5t24.5 -79.5q10 42 22 79t26 74l173 474h110l-279 -750h-105l-285 750h115z" />
    <glyph glyph-name="W" unicode="W" horiz-adv-x="957" 
d="M512 440q-8 31 -17.5 78t-16.5 94q-8 -48 -18.5 -94.5t-18.5 -77.5l-117 -440h-108l-204 750h116l113 -473q8 -31 15.5 -71t13.5 -82q8 42 18 82t18 71l122 473h98l131 -473q8 -30 16 -69.5t13 -79.5q7 40 15 79.5t16 69.5l121 473h107l-211 -750h-101z" />
    <glyph glyph-name="X" unicode="X" horiz-adv-x="642" 
d="M388 207q-17 29 -32 55.5t-35 63.5q-20 -36 -36.5 -64t-32.5 -55l-120 -207h-118l233 385l-223 365h121l115 -204l28 -50t33 -60q9 18 17 32t15.5 27t15 25.5t15.5 26.5l115 203h119l-224 -365l234 -385h-120z" />
    <glyph glyph-name="Y" unicode="Y" horiz-adv-x="604" 
d="M359 316v-316h-106v314l-247 436h117l114 -222q16 -31 36 -69.5t33 -70.5q5 16 13.5 34.5t17.5 37.5t18.5 36.5t16.5 31.5l113 222h113z" />
    <glyph glyph-name="Z" unicode="Z" horiz-adv-x="608" 
d="M194 158q-11 -15 -25.5 -34t-27.5 -35h443v-89h-564v80l378 512q11 16 25.5 34.5t27.5 34.5h-416v89h537v-80z" />
    <glyph glyph-name="bracketleft" unicode="[" horiz-adv-x="396" 
d="M90 831h286v-88h-181v-819h181v-88h-286v995z" />
    <glyph glyph-name="backslash" unicode="\" horiz-adv-x="477" 
d="M374 -164l-374 995h103l374 -995h-103z" />
    <glyph glyph-name="bracketright" unicode="]" horiz-adv-x="396" 
d="M306 -164h-286v88h181v819h-181v88h286v-995z" />
    <glyph glyph-name="asciicircum" unicode="^" horiz-adv-x="553" 
d="M246 747h62l195 -302h-107l-116 182h-7l-116 -182h-107z" />
    <glyph glyph-name="underscore" unicode="_" horiz-adv-x="435" 
d="M0 -30h435v-85h-435v85z" />
    <glyph glyph-name="grave" unicode="`" 
d="M369 606h-105l-113 134h130z" />
    <glyph glyph-name="a" unicode="a" horiz-adv-x="554" 
d="M486 0h-89l-10 45q-14 -8 -36 -18t-47 -18t-52 -13.5t-51 -5.5q-81 0 -118 39t-37 123v18q0 49 17.5 81t50 50.5t79 25.5t104.5 7h86v29q0 31 -4 52.5t-16 35.5t-34.5 20.5t-58.5 6.5q-33 0 -76.5 -8t-83.5 -22v86q45 16 89.5 23t87.5 7q64 0 103.5 -16.5t60.5 -44
t28 -63.5t7 -76v-364zM383 120v135h-85q-44 0 -72.5 -4.5t-45 -15t-23.5 -29t-7 -46.5v-14q0 -40 17 -55t51 -15q13 0 34.5 3t45 9t46.5 14t39 18z" />
    <glyph glyph-name="b" unicode="b" horiz-adv-x="618" 
d="M366 564q49 0 85 -15.5t60 -42.5t35.5 -63t11.5 -78v-142q0 -54 -12 -97.5t-38.5 -73.5t-68.5 -46.5t-101 -16.5q-35 0 -82 11t-87 40l-6 -40h-88v744l103 30v-263q33 19 83.5 36t104.5 17zM178 426v-306q32 -22 71.5 -32.5t74.5 -10.5q73 0 101.5 39.5t28.5 120.5v97
q0 70 -23 105t-88 35q-45 0 -89 -15t-76 -33z" />
    <glyph glyph-name="c" unicode="c" horiz-adv-x="516" 
d="M458 541v-84q-24 8 -61.5 13.5t-76.5 5.5q-49 0 -80.5 -12.5t-49.5 -34.5t-24.5 -51.5t-6.5 -63.5v-76q0 -36 6 -65.5t23.5 -50t48.5 -32t82 -11.5q33 0 71 5t78 19v-86q-34 -16 -77.5 -22t-78.5 -6q-134 0 -195.5 60t-61.5 192v62q0 139 66.5 200t189.5 61q42 0 80 -5.5
t67 -17.5z" />
    <glyph glyph-name="d" unicode="d" horiz-adv-x="618" 
d="M252 -10q-51 0 -87.5 15t-60 41.5t-34 62.5t-10.5 78v151q0 60 16 103t46 70t73 40t97 13q18 0 39 -2.5t41 -7t38 -11t30 -13.5v214l103 30v-774h-93l-10 43q-21 -13 -46 -23t-50 -16.5t-49 -10t-43 -3.5zM440 124v319q-13 8 -30 14t-34.5 10.5t-34.5 6.5t-30 2
q-33 0 -60.5 -6t-46.5 -21.5t-29.5 -42t-10.5 -68.5v-133q0 -63 23.5 -94.5t80.5 -31.5q38 0 82.5 9.5t89.5 35.5z" />
    <glyph glyph-name="e" unicode="e" horiz-adv-x="576" 
d="M528 246h-371v-22q0 -33 6.5 -60.5t24 -46.5t49 -29.5t82.5 -10.5q32 0 74.5 5t82.5 19v-83q-35 -15 -80 -21.5t-81 -6.5q-68 0 -117.5 14.5t-81 45.5t-46.5 78t-15 113v62q0 69 17.5 118.5t49 81t74.5 46.5t94 15q55 0 99.5 -13.5t75 -45t47 -84t16.5 -129.5v-46z
M427 325v7q0 31 -7 57.5t-23 46.5t-42 31.5t-64 11.5q-36 0 -61.5 -11.5t-41.5 -31.5t-23.5 -46.5t-7.5 -57.5v-7h270z" />
    <glyph glyph-name="f" unicode="f" horiz-adv-x="381" 
d="M213 552h139v-87h-139v-465h-103v465h-90v87h90v90q0 69 38 100.5t110 31.5q30 0 59 -4.5t44 -9.5v-78q-17 3 -35.5 5t-37.5 2q-48 0 -61.5 -16t-13.5 -55v-66z" />
    <glyph glyph-name="g" unicode="g" horiz-adv-x="618" 
d="M254 -6q-54 0 -91 15.5t-60 43t-33 64.5t-10 80v139q0 118 60.5 173t162.5 55q20 0 43.5 -3.5t45.5 -9.5t40.5 -15t30.5 -21l8 37h92v-573q0 -51 -12.5 -89t-41.5 -63t-76 -37.5t-115 -12.5q-36 0 -72.5 4.5t-64.5 10.5v85q29 -7 65 -10.5t63 -3.5q43 0 72 5.5t46.5 19
t25 36.5t7.5 58v54q-36 -20 -86 -31t-100 -11zM440 118v312q-21 19 -62.5 32.5t-86.5 13.5q-26 0 -49.5 -6.5t-40.5 -22t-27 -42.5t-10 -69v-122q0 -67 23 -99t86 -32q42 0 85.5 8.5t81.5 26.5z" />
    <glyph glyph-name="h" unicode="h" horiz-adv-x="602" 
d="M530 0h-103v373q0 49 -14.5 75t-65.5 26q-40 0 -83.5 -13t-85.5 -35v-426h-103v744l103 30v-263q42 22 91 37.5t92 15.5q93 0 131 -41t38 -118v-405z" />
    <glyph glyph-name="i" unicode="i" horiz-adv-x="253" 
d="M178 0h-103v552h103v-552zM178 655h-103v111h103v-111z" />
    <glyph glyph-name="j" unicode="j" horiz-adv-x="258" 
d="M183 552v-616q0 -43 -7 -73t-23 -49t-43 -28t-66 -9q-9 0 -22 0.5t-26.5 1.5t-26.5 3t-23 5v85q19 -3 38 -4.5t42 -1.5q35 0 44.5 16.5t9.5 57.5v612h103zM183 655h-103v111h103v-111z" />
    <glyph glyph-name="k" unicode="k" horiz-adv-x="543" 
d="M177 774v-427h69l171 205h117l-214 -251l218 -301h-122l-181 257h-58v-257h-102v744z" />
    <glyph glyph-name="l" unicode="l" horiz-adv-x="253" 
d="M178 0h-103v744l103 30v-774z" />
    <glyph glyph-name="m" unicode="m" horiz-adv-x="898" 
d="M826 0h-103v378q0 49 -16 72.5t-61 23.5q-64 0 -145 -51q1 -5 1 -9v-9v-405h-103v378q0 49 -16 72.5t-61 23.5q-32 0 -67 -12.5t-77 -38.5v-423h-103v552h92l10 -43q37 24 78.5 39.5t80.5 15.5q55 0 90 -16t54 -47q46 30 95 46.5t85 16.5q88 0 127 -40.5t39 -118.5v-405z
" />
    <glyph glyph-name="n" unicode="n" horiz-adv-x="602" 
d="M530 0h-103v373q0 49 -14.5 75t-65.5 26q-37 0 -82 -12.5t-87 -38.5v-423h-103v552h92l10 -43q42 24 92 39.5t92 15.5q93 0 131 -41.5t38 -117.5v-405z" />
    <glyph glyph-name="o" unicode="o" horiz-adv-x="599" 
d="M544 242q0 -121 -63.5 -186.5t-181.5 -65.5q-117 0 -180.5 65.5t-63.5 186.5v70q0 121 63.5 186.5t180.5 65.5q118 0 181.5 -65.5t63.5 -186.5v-70zM440 312q0 89 -37.5 127t-103.5 38q-65 0 -102.5 -38t-37.5 -127v-70q0 -89 37.5 -127t102.5 -38q66 0 103.5 38
t37.5 127v70z" />
    <glyph glyph-name="p" unicode="p" horiz-adv-x="618" 
d="M75 -216v768h92l10 -44q38 23 86.5 39.5t102.5 16.5q50 0 86 -16t59.5 -43t35 -63t11.5 -76v-146q0 -119 -60 -175t-178 -56q-13 0 -31.5 1.5t-38 5t-38.5 8t-34 10.5v-230h-103zM178 422v-322q30 -11 67.5 -17t66.5 -6q48 0 76 13t42.5 35t19 49.5t4.5 56.5v104
q0 33 -4.5 59t-17 43.5t-34 27t-55.5 9.5q-39 0 -84 -15t-81 -37z" />
    <glyph glyph-name="q" unicode="q" horiz-adv-x="618" 
d="M254 -10q-54 0 -91 15.5t-60 43t-33 64.5t-10 80v143q0 118 60.5 173t162.5 55q20 0 43.5 -3.5t45.5 -9.5t40.5 -15t30.5 -21l8 37h92v-768h-103v248q-36 -20 -86 -31t-100 -11zM440 114v316q-21 19 -62.5 32.5t-86.5 13.5q-26 0 -49.5 -6.5t-40.5 -22t-27 -42.5t-10 -69
v-126q0 -67 23 -99t86 -32q42 0 85.5 8.5t81.5 26.5z" />
    <glyph glyph-name="r" unicode="r" horiz-adv-x="381" 
d="M361 564v-101q-47 -3 -95.5 -17t-87.5 -44v-402h-103v552h92l10 -56q30 23 75.5 44t108.5 24z" />
    <glyph glyph-name="s" unicode="s" horiz-adv-x="484" 
d="M444 153q0 -35 -9.5 -64.5t-33 -51.5t-62.5 -34.5t-98 -12.5q-41 0 -93.5 7.5t-97.5 25.5v87q55 -21 104 -27.5t81 -6.5q62 0 85 18t23 54q0 18 -1.5 31t-10.5 22t-27 16.5t-51 15.5l-41 10q-45 11 -75.5 24.5t-49 32.5t-26.5 44t-8 58q0 76 46.5 119t154.5 43
q45 0 83.5 -5t66.5 -15v-84q-30 9 -67.5 14t-67.5 5q-34 0 -56 -3.5t-35.5 -12t-19 -22t-5.5 -33.5q0 -19 3.5 -31.5t13 -20.5t26.5 -14.5t44 -13.5l41 -10q51 -12 83 -26t49.5 -33t24 -45t6.5 -61z" />
    <glyph glyph-name="t" unicode="t" horiz-adv-x="403" 
d="M361 465h-147v-311q0 -39 11 -56.5t43 -17.5q24 0 48.5 4t44.5 13v-83q-20 -13 -52 -18.5t-63 -5.5q-72 0 -103.5 33.5t-31.5 99.5v342h-91v87h91v114l103 30v-144h147v-87z" />
    <glyph glyph-name="u" unicode="u" horiz-adv-x="597" 
d="M72 552h103v-372q0 -24 2.5 -43t11 -32t24 -19.5t41.5 -6.5q37 0 80 12.5t85 38.5v422h103v-552h-92l-10 45q-42 -24 -90 -39.5t-90 -15.5q-93 0 -130.5 41t-37.5 118v403z" />
    <glyph glyph-name="v" unicode="v" horiz-adv-x="528" 
d="M324 0h-120l-192 552h111l107 -340q8 -26 16.5 -54.5t19.5 -63.5h1q11 35 19.5 63.5t16.5 54.5l107 340h106z" />
    <glyph glyph-name="w" unicode="w" horiz-adv-x="800" 
d="M118 552l102 -339q5 -17 11 -43t10 -49h1q4 24 9.5 49.5t10.5 42.5l96 339h90l96 -339q5 -15 11 -42t9 -50h1q4 23 10.5 50t11.5 42l103 339h94l-175 -552h-95l-92 325q-3 10 -6 25t-5.5 31t-4.5 30.5t-3 24.5h-1q-1 -10 -3 -24.5t-5 -30.5t-6 -31t-6 -25l-95 -325h-94
l-177 552h102z" />
    <glyph glyph-name="x" unicode="x" horiz-adv-x="554" 
d="M153 552l60 -94q17 -26 34.5 -55.5t33.5 -55.5h1q14 26 30 55.5t31 55.5l54 94h123l-179 -272l189 -280h-120l-65 100q-6 10 -15.5 25t-19.5 31t-19 31t-14 24h-1q-5 -9 -13.5 -24t-18.5 -31t-19.5 -31t-15.5 -25l-64 -100h-121l191 282l-182 270h120z" />
    <glyph glyph-name="y" unicode="y" horiz-adv-x="540" 
d="M530 552l-286 -768h-103l79 217l-210 551h112l120 -346q7 -19 16 -49t15 -65h1q6 31 14.5 63.5t15.5 50.5l122 346h104z" />
    <glyph glyph-name="z" unicode="z" horiz-adv-x="492" 
d="M453 473l-243 -317q-11 -15 -25.5 -32.5t-31.5 -37.5h314v-86h-432v79l243 318l54 69h-286v86h407v-79z" />
    <glyph glyph-name="braceleft" unicode="{" horiz-adv-x="433" 
d="M35 394q103 0 103 77v206q0 78 42.5 116t133.5 38h101v-88h-93q-38 0 -59 -15t-21 -53v-193q0 -18 -3 -39t-12 -40.5t-25.5 -34.5t-43.5 -21q27 -6 43.5 -21t25.5 -34.5t12 -40.5t3 -39v-220q0 -38 21 -53t59 -15h93v-88h-101q-91 0 -133.5 38t-42.5 116v233
q0 77 -103 77v94z" />
    <glyph glyph-name="bar" unicode="|" horiz-adv-x="304" 
d="M202 -164h-100v995h100v-995z" />
    <glyph glyph-name="braceright" unicode="}" horiz-adv-x="433" 
d="M398 300q-103 0 -103 -77v-233q0 -78 -42.5 -116t-133.5 -38h-101v88h93q38 0 59 15t21 53v220q0 18 3 39t12 40.5t25.5 34.5t43.5 21q-27 6 -43.5 21t-25.5 34.5t-12 40.5t-3 39v193q0 38 -21 53t-59 15h-93v88h101q91 0 133.5 -38t42.5 -116v-206q0 -77 103 -77v-94z
" />
    <glyph glyph-name="asciitilde" unicode="~" horiz-adv-x="581" 
d="M381 258q-35 0 -58.5 11.5t-42 25.5t-36 25.5t-39.5 11.5q-16 0 -26.5 -7t-17 -18t-10 -25t-5.5 -27h-101q5 33 15 64t28 54t45 37t67 14q35 0 59 -11.5t43.5 -25.5t37 -25.5t38.5 -11.5q17 0 27.5 7t17 18t9.5 24.5t5 27.5h99q-5 -32 -13.5 -62.5t-26 -54t-45 -38
t-70.5 -14.5z" />
    <glyph glyph-name="uni00A0" unicode="&#xa0;" horiz-adv-x="0" 
 />
    <glyph glyph-name="exclamdown" unicode="&#xa1;" horiz-adv-x="288" 
d="M88 -165l16 533h80l16 -533h-112zM84 585h120v-125h-120v125z" />
    <glyph glyph-name="cent" unicode="&#xa2;" horiz-adv-x="532" 
d="M356 0h-70v94q-115 8 -173 67.5t-58 183.5v62q0 64 16 111t46 78.5t73 48.5t96 21v84h70v-83q33 -2 64 -7.5t54 -14.5v-82q-20 7 -52 11.5t-66 6.5v-400q29 2 62.5 7.5t65.5 16.5v-84q-26 -13 -61 -19t-67 -8v-94zM157 418v-76q0 -33 5.5 -60.5t19.5 -47.5t39.5 -33.5
t64.5 -17.5v396q-38 -5 -63 -19t-39.5 -35t-20.5 -48.5t-6 -58.5z" />
    <glyph glyph-name="sterling" unicode="&#xa3;" horiz-adv-x="582" 
d="M55 413h80v74q0 142 58.5 209t187.5 67q25 0 55 -4t59 -13v-97q-20 9 -49.5 13.5t-62.5 4.5q-28 0 -54 -7.5t-45.5 -27t-31 -53t-11.5 -85.5v-81h219v-80h-219v-37q0 -39 -1.5 -68t-6.5 -51.5t-16.5 -41t-30.5 -35.5v-2h366v-98h-502v80q52 31 68.5 82.5t16.5 128.5v42
h-80v80z" />
    <glyph glyph-name="currency" unicode="&#xa4;" horiz-adv-x="720" 
d="M481 167q-52 -32 -121 -32q-68 0 -121 33l-102 -102l-57 57l100 100q-21 29 -32.5 64.5t-11.5 77.5t11.5 77t31.5 64l-99 100l57 57l101 -102q26 16 56.5 24.5t65.5 8.5q68 0 121 -33l102 102l57 -57l-99 -99q21 -29 33 -64.5t12 -77.5t-12 -78t-33 -65l99 -99l-57 -57z
M360 211q33 0 59.5 11.5t44.5 32t28 49t10 61.5q0 68 -38 110.5t-104 42.5q-65 0 -103 -42.5t-38 -110.5q0 -67 38 -110.5t103 -43.5z" />
    <glyph glyph-name="yen" unicode="&#xa5;" horiz-adv-x="604" 
d="M359 181v-181h-106v181h-199v82h199v70h-199v82h152l-193 335h117l109 -202q8 -15 17 -34t18 -38.5t17.5 -39t14.5 -35.5q5 16 13 36t17 40t18 38.5t16 32.5l108 202h113l-188 -335h147v-82h-191v-70h191v-82h-191z" />
    <glyph glyph-name="brokenbar" unicode="&#xa6;" horiz-adv-x="304" 
d="M202 216v-380h-100v380h100zM102 451v380h100v-380h-100z" />
    <glyph glyph-name="section" unicode="&#xa7;" horiz-adv-x="576" 
d="M60 308q0 47 24 87.5t76 63.5q-25 22 -35 51t-10 67q0 76 46.5 119t154.5 43q45 0 83.5 -5t66.5 -15v-84q-30 9 -67.5 14t-67.5 5q-34 0 -56 -3.5t-35.5 -12t-19 -22t-5.5 -33.5q0 -19 3.5 -33t13 -24t26.5 -18t44 -15l41 -10q51 -12 84.5 -28t53 -37.5t27.5 -49t8 -62.5
q0 -48 -24 -88.5t-76 -63.5q24 -22 34.5 -50.5t10.5 -66.5q0 -76 -46.5 -119t-154.5 -43q-45 0 -83.5 5t-66.5 15v84q30 -9 67.5 -14t67.5 -5q34 0 56 3.5t35.5 12t19 22t5.5 33.5q0 19 -3.5 33t-13 24t-26.5 18t-44 15l-41 10q-51 12 -84.5 28t-53 37.5t-27.5 49t-8 62.5z
M415 301q0 18 -3.5 32.5t-14 26.5t-30 21t-52.5 17l-41 10l-22 5q-52 -13 -71.5 -41t-19.5 -59q0 -18 3 -32.5t13.5 -26.5t30.5 -21t53 -17l41 -10l21 -6q52 13 72 41.5t20 59.5z" />
    <glyph glyph-name="dieresis" unicode="&#xa8;" 
d="M160 718h96v-106h-96v106zM343 718h96v-106h-96v106z" />
    <glyph glyph-name="copyright" unicode="&#xa9;" horiz-adv-x="824" 
d="M419 19q68 0 124.5 23.5t97.5 65.5t64 100t23 127t-23 127t-64.5 100t-98 65t-123.5 23t-123 -23t-97 -65t-64 -100t-23 -127t23 -127t64 -100t97 -65.5t123 -23.5zM419 -33q-81 0 -148 29t-115 79t-75 117t-27 143t27 143t75 116.5t115 78.5t148 29q82 0 149.5 -29
t116 -78.5t75 -116.5t26.5 -143t-27 -143t-75.5 -117t-116 -79t-148.5 -29zM556 528v-73q-17 6 -45 10.5t-59 4.5q-33 0 -54 -7.5t-33 -22t-16.5 -34.5t-4.5 -45v-57q0 -26 4 -45.5t15.5 -33t32.5 -20.5t55 -7q27 0 55.5 4t57.5 15v-75q-26 -12 -58.5 -16t-58.5 -4
q-99 0 -144.5 43.5t-45.5 141.5v46q0 102 48.5 147t140.5 45q31 0 60 -4t50 -13z" />
    <glyph glyph-name="ordfeminine" unicode="&#xaa;" horiz-adv-x="466" 
d="M416 289h-86l-9 38q-9 -7 -25.5 -15.5t-37 -15.5t-43.5 -11.5t-47 -4.5q-69 0 -103.5 33.5t-34.5 105.5v16q0 42 15.5 70.5t44 45t69 23.5t90.5 7h69v20q0 27 -5 44.5t-16 27.5t-28.5 13.5t-43.5 3.5q-28 0 -64.5 -7t-70.5 -19v84q38 14 76.5 20t75.5 6q55 0 89.5 -14
t53 -38t25 -55t6.5 -65v-313zM318 397v107h-68q-66 0 -93.5 -15t-27.5 -59v-12q0 -34 17.5 -44.5t46.5 -10.5q11 0 27.5 2.5t34.5 7t34.5 10.5t28.5 14z" />
    <glyph glyph-name="guillemotleft" unicode="&#xab;" horiz-adv-x="590" 
d="M60 245v60l170 194h106l-182 -220v-5l182 -226h-106zM280 245v60l164 194h106l-176 -220v-5l176 -226h-106z" />
    <glyph glyph-name="logicalnot" unicode="&#xac;" 
d="M59 388h471v-270h-79v201h-392v69z" />
    <glyph glyph-name="uni00AD" unicode="&#xad;" horiz-adv-x="833" 
 />
    <glyph glyph-name="registered" unicode="&#xae;" horiz-adv-x="630" 
d="M314 226q45 0 83.5 16t66 44.5t43 68t15.5 85.5t-15.5 85.5t-43.5 67.5t-66 44t-83 16t-82.5 -16t-65 -44t-43 -67.5t-15.5 -85.5t15.5 -85.5t43 -68t65 -44.5t82.5 -16zM314 178q-57 0 -105 20.5t-82.5 56t-53.5 83.5t-19 102t19 102t53.5 83.5t82.5 56t105 20.5
q58 0 106.5 -20.5t83 -56t53.5 -83.5t19 -102t-19 -102t-53.5 -83.5t-83 -56t-106.5 -20.5zM216 584h109q44 0 72 -16t28 -60v-21q0 -32 -10.5 -48.5t-34.5 -25.5l60 -113h-70l-50 104h-43v-104h-61v284zM277 537v-85h33q32 0 42.5 7.5t10.5 29.5v14q0 19 -10.5 26.5
t-41.5 7.5h-34z" />
    <glyph glyph-name="macron" unicode="&#xaf;" 
d="M154 720h292v-80h-292v80z" />
    <glyph glyph-name="degree" unicode="&#xb0;" horiz-adv-x="413" 
d="M206 498q35 0 56.5 21t21.5 57q0 35 -21.5 57t-56.5 22t-56 -22t-21 -57q0 -36 21 -57t56 -21zM206 425q-34 0 -62.5 12.5t-49.5 33t-32.5 48t-11.5 57.5q0 31 11.5 58t32.5 47.5t49.5 32.5t62.5 12t62.5 -12t49.5 -32.5t33 -47.5t12 -58q0 -30 -12 -57.5t-33 -48
t-49.5 -33t-62.5 -12.5z" />
    <glyph glyph-name="plusminus" unicode="&#xb1;" horiz-adv-x="586" 
d="M344 600v-189h197v-94h-197v-183h-102v183h-197v94h197v189h102zM45 106h496v-94h-496v94z" />
    <glyph glyph-name="twosuperior" unicode="&#xb2;" horiz-adv-x="400" 
d="M30 289v73l174 167q19 18 30.5 31t16.5 24.5t6.5 24t1.5 30.5v6q0 28 -17 38.5t-67 10.5q-35 0 -69 -7t-62 -18v80q25 9 62 17t72 8q92 0 135 -28.5t43 -91.5v-8q0 -27 -3 -48t-12 -40t-24.5 -37.5t-40.5 -40.5l-125 -114h220v-77h-341z" />
    <glyph glyph-name="threesuperior" unicode="&#xb3;" horiz-adv-x="405" 
d="M123 495v75h71q44 0 57 15.5t13 51.5q0 35 -19.5 47.5t-60.5 12.5q-33 0 -68 -7t-64 -17v76q24 10 60.5 17.5t75.5 7.5q48 0 81 -9t53 -26t28.5 -42t8.5 -57q0 -14 -2.5 -29.5t-10 -30t-21.5 -27t-37 -19.5q47 -11 66 -38.5t19 -74.5q0 -72 -41.5 -106.5t-143.5 -34.5
q-42 0 -83.5 7.5t-65.5 17.5v78q27 -11 68 -18t76 -7q29 0 47.5 4.5t29 13t14.5 21.5t4 30q0 22 -4.5 35.5t-15 20.5t-26.5 9.5t-39 2.5h-70z" />
    <glyph glyph-name="acute" unicode="&#xb4;" 
d="M292 740h130l-113 -134h-105z" />
    <glyph glyph-name="mu" unicode="&#xb5;" horiz-adv-x="595" 
d="M173 -216h-103v768h103v-372q0 -53 28 -77t76 -24q35 0 70 14t70 37v422h103v-552h-92l-10 45q-26 -20 -65.5 -37.5t-85.5 -17.5q-13 0 -27.5 3t-27.5 9.5t-23.5 16t-15.5 22.5v-257z" />
    <glyph glyph-name="paragraph" unicode="&#xb6;" horiz-adv-x="575" 
d="M495 750v-872h-90v793h-63v-793h-90v459q-103 2 -156 51t-53 135v41q0 88 55 137t160 49h237z" />
    <glyph glyph-name="periodcentered" unicode="&#xb7;" horiz-adv-x="278" 
d="M79 403h120v-125h-120v125z" />
    <glyph glyph-name="cedilla" unicode="&#xb8;" 
d="M295 -263q-40 0 -81 7v70q15 -2 30.5 -3t34.5 -1q44 0 58.5 12t14.5 26v8q0 20 -17 30t-67 10h-20v125h90v-75q33 -3 55 -10t35 -19t18 -28.5t5 -36.5v-8q0 -31 -12.5 -51.5t-33.5 -33t-49.5 -17.5t-60.5 -5z" />
    <glyph glyph-name="onesuperior" unicode="&#xb9;" horiz-adv-x="350" 
d="M32 289v74h109v301l-112 -49v83l129 67h81v-402h93v-74h-300z" />
    <glyph glyph-name="ordmasculine" unicode="&#xba;" horiz-adv-x="489" 
d="M459 497q0 -105 -57 -161t-158 -56q-100 0 -157 56t-57 161v60q0 105 57 161t157 56q101 0 158 -56t57 -161v-60zM359 557q0 38 -8.5 64t-24 41.5t-36.5 22.5t-46 7q-50 0 -82 -29.5t-32 -105.5v-60q0 -38 8.5 -64t23.5 -42t36 -22.5t46 -6.5t46 6.5t36.5 22.5t24 42
t8.5 64v60z" />
    <glyph glyph-name="guillemotright" unicode="&#xbb;" horiz-adv-x="590" 
d="M380 48h-106l182 226v5l-182 220h106l170 -194v-60zM166 48h-106l176 226v5l-176 220h106l164 -194v-60z" />
    <glyph glyph-name="onequarter" unicode="&#xbc;" horiz-adv-x="970" 
d="M528 13v77l228 309h109v-308h61v-78h-61v-90h-93v90h-244zM772 91v207l-154 -207h154zM62 289v74h109v301l-112 -49v83l129 67h81v-402h93v-74h-300zM184 -80l559 853h103l-559 -853h-103z" />
    <glyph glyph-name="onehalf" unicode="&#xbd;" horiz-adv-x="1003" 
d="M184 -80l559 853h103l-559 -853h-103zM622 -77v73l174 167q19 18 30.5 31t16.5 24.5t6.5 24t1.5 30.5v6q0 28 -17 38.5t-67 10.5q-35 0 -69 -7t-62 -18v80q25 9 62 17t72 8q92 0 135 -28.5t43 -91.5v-8q0 -27 -3 -48t-12 -40t-24.5 -37.5t-40.5 -40.5l-125 -114h220v-77
h-341zM62 289v74h109v301l-112 -49v83l129 67h81v-402h93v-74h-300z" />
    <glyph glyph-name="threequarters" unicode="&#xbe;" horiz-adv-x="970" 
d="M528 13v77l228 309h109v-308h61v-78h-61v-90h-93v90h-244zM194 -80l559 853h103l-559 -853h-103zM133 495v75h71q44 0 57 15.5t13 51.5q0 35 -19.5 47.5t-60.5 12.5q-33 0 -68 -7t-64 -17v76q24 10 60.5 17.5t75.5 7.5q48 0 81 -9t53 -26t28.5 -42t8.5 -57
q0 -14 -2.5 -29.5t-10 -30t-21.5 -27t-37 -19.5q47 -11 66 -38.5t19 -74.5q0 -72 -41.5 -106.5t-143.5 -34.5q-42 0 -83.5 7.5t-65.5 17.5v78q27 -11 68 -18t76 -7q29 0 47.5 4.5t29 13t14.5 21.5t4 30q0 22 -4.5 35.5t-15 20.5t-26.5 9.5t-39 2.5h-70zM772 91v207
l-154 -207h154z" />
    <glyph glyph-name="questiondown" unicode="&#xbf;" horiz-adv-x="517" 
d="M337 376v-48q0 -35 -6 -58.5t-20 -42.5t-37.5 -36.5t-58.5 -40.5q-21 -14 -35 -25.5t-22.5 -25t-12 -30t-3.5 -40.5q0 -30 6.5 -50.5t22.5 -33t43 -18.5t69 -6q51 0 99.5 12t90.5 29v-92q-35 -16 -86 -29t-108 -13q-68 0 -113.5 13.5t-73.5 39.5t-40 63t-12 85
q0 45 10 75.5t25.5 51.5t34 35t35.5 26l45.5 32.5t27 23.5t13 24t3.5 33v46h103zM345 460h-120v125h120v-125z" />
    <glyph glyph-name="Agrave" unicode="&#xc0;" horiz-adv-x="688" 
d="M678 0h-116l-75 211h-296l-74 -211h-107l275 750h103zM224 305h228l-69 195q-13 35 -23.5 67.5t-21.5 71.5q-11 -39 -22 -72t-23 -67zM393 806h-105l-113 134h130z" />
    <glyph glyph-name="Aacute" unicode="&#xc1;" horiz-adv-x="688" 
d="M678 0h-116l-75 211h-296l-74 -211h-107l275 750h103zM224 305h228l-69 195q-13 35 -23.5 67.5t-21.5 71.5q-11 -39 -22 -72t-23 -67zM377 940h130l-113 -134h-105z" />
    <glyph glyph-name="Acircumflex" unicode="&#xc2;" horiz-adv-x="688" 
d="M678 0h-116l-75 211h-296l-74 -211h-107l275 750h103zM224 305h228l-69 195q-13 35 -23.5 67.5t-21.5 71.5q-11 -39 -22 -72t-23 -67zM299 954h89l100 -148h-82l-63 80l-64 -80h-80z" />
    <glyph glyph-name="Atilde" unicode="&#xc3;" horiz-adv-x="688" 
d="M678 0h-116l-75 211h-296l-74 -211h-107l275 750h103zM224 305h228l-69 195q-13 35 -23.5 67.5t-21.5 71.5q-11 -39 -22 -72t-23 -67zM404 808q-24 0 -39.5 8.5t-27.5 19t-22.5 19t-23.5 8.5q-17 0 -26 -17.5t-12 -35.5h-75q3 22 9.5 45.5t18.5 42t30.5 30.5t45.5 12
q25 0 42 -8.5t29.5 -19t23 -19t22.5 -8.5q19 0 26 18.5t9 36.5h75q-2 -21 -8 -44t-18 -42.5t-31 -32.5t-48 -13z" />
    <glyph glyph-name="Adieresis" unicode="&#xc4;" horiz-adv-x="688" 
d="M678 0h-116l-75 211h-296l-74 -211h-107l275 750h103zM224 305h228l-69 195q-13 35 -23.5 67.5t-21.5 71.5q-11 -39 -22 -72t-23 -67zM199 918h96v-106h-96v106zM382 918h96v-106h-96v106z" />
    <glyph glyph-name="Aring" unicode="&#xc5;" horiz-adv-x="688" 
d="M337 844q23 0 36.5 13.5t13.5 36.5t-13.5 37t-36.5 14q-22 0 -35.5 -14t-13.5 -37t13.5 -36.5t35.5 -13.5zM337 789q-23 0 -43 8.5t-34.5 23t-22.5 33.5t-8 40t8 40t22.5 33.5t34.5 22.5t43 8q24 0 44 -8t34.5 -22.5t22.5 -33.5t8 -40t-8 -40t-22.5 -33.5t-34.5 -23
t-44 -8.5zM677 0h-116l-75 211h-296l-74 -211h-107l275 750h103zM223 305h228l-69 195q-13 35 -23.5 67.5t-21.5 71.5q-11 -39 -22 -72t-23 -67z" />
    <glyph glyph-name="AE" unicode="&#xc6;" horiz-adv-x="1052" 
d="M998 750v-95h-371v-221h338v-93h-338v-246h385v-95h-491v211h-249l-135 -211h-127l481 750h507zM468 535l-143 -230h196v332q-16 -36 -29 -60t-24 -42z" />
    <glyph glyph-name="Ccedilla" unicode="&#xc7;" horiz-adv-x="621" 
d="M330 -263q-40 0 -81 7v70q15 -2 30.5 -3t34.5 -1q44 0 58.5 12t14.5 26v8q0 20 -17 30t-67 10h-20v99q-63 9 -107 31t-71.5 60t-40 93t-12.5 130v122q0 94 21 157.5t62.5 102t103.5 55t145 16.5q51 0 100 -5.5t86 -19.5v-90q-30 10 -80 15.5t-98 5.5q-79 0 -125 -18
t-70 -48.5t-31 -71.5t-7 -86v-131q0 -47 5.5 -89t28.5 -73.5t69.5 -49.5t128.5 -18q40 0 89.5 4.5t100.5 20.5v-89q-22 -9 -48 -15t-52 -9.5t-51 -5t-45 -1.5h-12v-42q33 -3 55 -10t35 -19t18 -28.5t5 -36.5v-8q0 -31 -12.5 -51.5t-33.5 -33t-49.5 -17.5t-60.5 -5z" />
    <glyph glyph-name="Egrave" unicode="&#xc8;" horiz-adv-x="611" 
d="M557 750v-95h-371v-221h338v-93h-338v-246h385v-95h-491v750h477zM400 806h-105l-113 134h130z" />
    <glyph glyph-name="Eacute" unicode="&#xc9;" horiz-adv-x="611" 
d="M557 750v-95h-371v-221h338v-93h-338v-246h385v-95h-491v750h477zM343 940h130l-113 -134h-105z" />
    <glyph glyph-name="Ecircumflex" unicode="&#xca;" horiz-adv-x="611" 
d="M557 750v-95h-371v-221h338v-93h-338v-246h385v-95h-491v750h477zM280 954h89l100 -148h-82l-63 80l-64 -80h-80z" />
    <glyph glyph-name="Edieresis" unicode="&#xcb;" horiz-adv-x="611" 
d="M557 750v-95h-371v-221h338v-93h-338v-246h385v-95h-491v750h477zM191 918h96v-106h-96v106zM374 918h96v-106h-96v106z" />
    <glyph glyph-name="Igrave" unicode="&#xcc;" horiz-adv-x="266" 
d="M186 0h-106v750h106v-750zM184 806h-108l-110 134h130z" />
    <glyph glyph-name="Iacute" unicode="&#xcd;" horiz-adv-x="266" 
d="M186 0h-106v750h106v-750zM168 940h130l-113 -134h-105z" />
    <glyph glyph-name="Icircumflex" unicode="&#xce;" horiz-adv-x="266" 
d="M186 0h-106v750h106v-750zM89 954h89l100 -148h-82l-63 80l-64 -80h-80z" />
    <glyph glyph-name="Idieresis" unicode="&#xcf;" horiz-adv-x="266" 
d="M186 0h-106v750h106v-750zM-6 918h96v-106h-96v106zM177 918h96v-106h-96v106z" />
    <glyph glyph-name="Eth" unicode="&#xd0;" horiz-adv-x="728" 
d="M92 0v339h-82v93h82v318h258q94 0 156.5 -18t100 -58t53.5 -104t16 -155v-98q0 -90 -15 -151t-51.5 -98t-98.5 -52.5t-156 -15.5h-263zM198 339v-244h152q72 0 115.5 14t67 41t30.5 67t7 93v122q0 52 -7 93t-29.5 70t-65 44.5t-113.5 15.5h-157v-223h210v-93h-210z" />
    <glyph glyph-name="Ntilde" unicode="&#xd1;" horiz-adv-x="722" 
d="M642 0h-118l-293 498q-14 23 -26.5 51t-22.5 57v-606h-102v750h118l294 -498q15 -26 27.5 -52t20.5 -51v601h102v-750zM421 808q-24 0 -39.5 8.5t-27.5 19t-22.5 19t-23.5 8.5q-17 0 -26 -17.5t-12 -35.5h-75q3 22 9.5 45.5t18.5 42t30.5 30.5t45.5 12q25 0 42 -8.5
t29.5 -19t23 -19t22.5 -8.5q19 0 26 18.5t9 36.5h75q-2 -21 -8 -44t-18 -42.5t-31 -32.5t-48 -13z" />
    <glyph glyph-name="Ograve" unicode="&#xd2;" horiz-adv-x="752" 
d="M702 323q0 -163 -84 -249t-242 -86t-242 86t-84 249v104q0 162 84 248.5t242 86.5t242 -86.5t84 -248.5v-104zM595 421q0 67 -15.5 113.5t-44 75.5t-69 42.5t-90.5 13.5t-90.5 -13.5t-69 -42.5t-44 -75.5t-15.5 -113.5v-92q0 -67 15.5 -113.5t44 -76t69 -42.5t90.5 -13
t90.5 13t69 42.5t44 76t15.5 113.5v92zM437 806h-105l-113 134h130z" />
    <glyph glyph-name="Oacute" unicode="&#xd3;" horiz-adv-x="752" 
d="M702 323q0 -163 -84 -249t-242 -86t-242 86t-84 249v104q0 162 84 248.5t242 86.5t242 -86.5t84 -248.5v-104zM595 421q0 67 -15.5 113.5t-44 75.5t-69 42.5t-90.5 13.5t-90.5 -13.5t-69 -42.5t-44 -75.5t-15.5 -113.5v-92q0 -67 15.5 -113.5t44 -76t69 -42.5t90.5 -13
t90.5 13t69 42.5t44 76t15.5 113.5v92zM403 940h130l-113 -134h-105z" />
    <glyph glyph-name="Ocircumflex" unicode="&#xd4;" horiz-adv-x="752" 
d="M702 323q0 -163 -84 -249t-242 -86t-242 86t-84 249v104q0 162 84 248.5t242 86.5t242 -86.5t84 -248.5v-104zM595 421q0 67 -15.5 113.5t-44 75.5t-69 42.5t-90.5 13.5t-90.5 -13.5t-69 -42.5t-44 -75.5t-15.5 -113.5v-92q0 -67 15.5 -113.5t44 -76t69 -42.5t90.5 -13
t90.5 13t69 42.5t44 76t15.5 113.5v92zM331 954h89l100 -148h-82l-63 80l-64 -80h-80z" />
    <glyph glyph-name="Otilde" unicode="&#xd5;" horiz-adv-x="752" 
d="M702 323q0 -163 -84 -249t-242 -86t-242 86t-84 249v104q0 162 84 248.5t242 86.5t242 -86.5t84 -248.5v-104zM595 421q0 67 -15.5 113.5t-44 75.5t-69 42.5t-90.5 13.5t-90.5 -13.5t-69 -42.5t-44 -75.5t-15.5 -113.5v-92q0 -67 15.5 -113.5t44 -76t69 -42.5t90.5 -13
t90.5 13t69 42.5t44 76t15.5 113.5v92zM436 808q-24 0 -39.5 8.5t-27.5 19t-22.5 19t-23.5 8.5q-17 0 -26 -17.5t-12 -35.5h-75q3 22 9.5 45.5t18.5 42t30.5 30.5t45.5 12q25 0 42 -8.5t29.5 -19t23 -19t22.5 -8.5q19 0 26 18.5t9 36.5h75q-2 -21 -8 -44t-18 -42.5
t-31 -32.5t-48 -13z" />
    <glyph glyph-name="Odieresis" unicode="&#xd6;" horiz-adv-x="752" 
d="M702 323q0 -163 -84 -249t-242 -86t-242 86t-84 249v104q0 162 84 248.5t242 86.5t242 -86.5t84 -248.5v-104zM595 421q0 67 -15.5 113.5t-44 75.5t-69 42.5t-90.5 13.5t-90.5 -13.5t-69 -42.5t-44 -75.5t-15.5 -113.5v-92q0 -67 15.5 -113.5t44 -76t69 -42.5t90.5 -13
t90.5 13t69 42.5t44 76t15.5 113.5v92zM237 918h96v-106h-96v106zM420 918h96v-106h-96v106z" />
    <glyph glyph-name="multiply" unicode="&#xd7;" horiz-adv-x="586" 
d="M520 507l-161 -161l161 -160l-66 -66l-161 160l-160 -160l-66 66l160 160l-160 161l66 66l160 -161l161 161z" />
    <glyph glyph-name="Oslash" unicode="&#xd8;" horiz-adv-x="752" 
d="M702 322q0 -163 -84 -249t-242 -86q-110 0 -186 44l-50 -74h-95l83 123q-78 86 -78 242v106q0 162 84 248.5t242 86.5q110 0 186 -44l50 73h95l-84 -123q79 -85 79 -241v-106zM376 667q-50 0 -90.5 -13.5t-69 -42.5t-44 -75.5t-15.5 -113.5v-94q0 -51 8.5 -89t25.5 -67
l314 463q-51 32 -129 32zM595 422q0 50 -8.5 88t-25.5 67l-315 -463q26 -17 59 -24t71 -7q50 0 90.5 13t69 42.5t44 76t15.5 113.5v94z" />
    <glyph glyph-name="Ugrave" unicode="&#xd9;" horiz-adv-x="739" 
d="M177 750v-466q0 -56 11.5 -94t34.5 -61t59 -32.5t86 -9.5q51 0 88 9.5t60.5 32.5t34.5 61t11 94v466h107v-472q0 -149 -72.5 -219.5t-228.5 -70.5q-155 0 -226.5 70t-71.5 220v472h107zM448 806h-105l-113 134h130z" />
    <glyph glyph-name="Uacute" unicode="&#xda;" horiz-adv-x="739" 
d="M177 750v-466q0 -56 11.5 -94t34.5 -61t59 -32.5t86 -9.5q51 0 88 9.5t60.5 32.5t34.5 61t11 94v466h107v-472q0 -149 -72.5 -219.5t-228.5 -70.5q-155 0 -226.5 70t-71.5 220v472h107zM398 940h130l-113 -134h-105z" />
    <glyph glyph-name="Ucircumflex" unicode="&#xdb;" horiz-adv-x="739" 
d="M177 750v-466q0 -56 11.5 -94t34.5 -61t59 -32.5t86 -9.5q51 0 88 9.5t60.5 32.5t34.5 61t11 94v466h107v-472q0 -149 -72.5 -219.5t-228.5 -70.5q-155 0 -226.5 70t-71.5 220v472h107zM325 954h89l100 -148h-82l-63 80l-64 -80h-80z" />
    <glyph glyph-name="Udieresis" unicode="&#xdc;" horiz-adv-x="739" 
d="M177 750v-466q0 -56 11.5 -94t34.5 -61t59 -32.5t86 -9.5q51 0 88 9.5t60.5 32.5t34.5 61t11 94v466h107v-472q0 -149 -72.5 -219.5t-228.5 -70.5q-155 0 -226.5 70t-71.5 220v472h107zM230 918h96v-106h-96v106zM413 918h96v-106h-96v106z" />
    <glyph glyph-name="Yacute" unicode="&#xdd;" horiz-adv-x="604" 
d="M359 316v-316h-106v314l-247 436h117l114 -222q16 -31 36 -69.5t33 -70.5q5 16 13.5 34.5t17.5 37.5t18.5 36.5t16.5 31.5l113 222h113zM334 940h130l-113 -134h-105z" />
    <glyph glyph-name="Thorn" unicode="&#xde;" horiz-adv-x="647" 
d="M80 750h106v-145h168q60 0 107.5 -7.5t81 -29.5t51.5 -62t18 -104v-47q0 -61 -16 -100t-49.5 -62t-85 -32t-122.5 -9h-153v-152h-106v750zM186 512v-269h148q53 0 86.5 5t52.5 17t26 32.5t7 52.5v63q0 27 -6.5 46t-23.5 30.5t-45.5 17t-71.5 5.5h-173z" />
    <glyph glyph-name="germandbls" unicode="&#xdf;" horiz-adv-x="576" 
d="M231 87h87q60 0 86 29t26 90v26q0 28 -5 51.5t-19 40t-39.5 25.5t-67.5 9h-45v83h35q57 0 80.5 31t23.5 97v30q0 90 -103 90q-54 0 -83 -23.5t-29 -72.5v-593h-103v598q0 37 13 69t39 56t66.5 37.5t96.5 13.5t95.5 -14t64.5 -38t36.5 -55t11.5 -65v-27q0 -22 -4 -47.5
t-14.5 -49t-28.5 -42.5t-47 -28q36 -6 61.5 -21.5t41 -38t22.5 -50t7 -57.5v-47q0 -39 -9 -74t-33 -62t-65.5 -42.5t-106.5 -15.5h-91v87z" />
    <glyph glyph-name="agrave" unicode="&#xe0;" horiz-adv-x="554" 
d="M486 0h-89l-10 45q-14 -8 -36 -18t-47 -18t-52 -13.5t-51 -5.5q-81 0 -118 39t-37 123v18q0 49 17.5 81t50 50.5t79 25.5t104.5 7h86v29q0 31 -4 52.5t-16 35.5t-34.5 20.5t-58.5 6.5q-33 0 -76.5 -8t-83.5 -22v86q45 16 89.5 23t87.5 7q64 0 103.5 -16.5t60.5 -44
t28 -63.5t7 -76v-364zM383 120v135h-85q-44 0 -72.5 -4.5t-45 -15t-23.5 -29t-7 -46.5v-14q0 -40 17 -55t51 -15q13 0 34.5 3t45 9t46.5 14t39 18zM363 606h-105l-113 134h130z" />
    <glyph glyph-name="aacute" unicode="&#xe1;" horiz-adv-x="554" 
d="M486 0h-89l-10 45q-14 -8 -36 -18t-47 -18t-52 -13.5t-51 -5.5q-81 0 -118 39t-37 123v18q0 49 17.5 81t50 50.5t79 25.5t104.5 7h86v29q0 31 -4 52.5t-16 35.5t-34.5 20.5t-58.5 6.5q-33 0 -76.5 -8t-83.5 -22v86q45 16 89.5 23t87.5 7q64 0 103.5 -16.5t60.5 -44
t28 -63.5t7 -76v-364zM383 120v135h-85q-44 0 -72.5 -4.5t-45 -15t-23.5 -29t-7 -46.5v-14q0 -40 17 -55t51 -15q13 0 34.5 3t45 9t46.5 14t39 18zM312 740h130l-113 -134h-105z" />
    <glyph glyph-name="acircumflex" unicode="&#xe2;" horiz-adv-x="554" 
d="M486 0h-89l-10 45q-14 -8 -36 -18t-47 -18t-52 -13.5t-51 -5.5q-81 0 -118 39t-37 123v18q0 49 17.5 81t50 50.5t79 25.5t104.5 7h86v29q0 31 -4 52.5t-16 35.5t-34.5 20.5t-58.5 6.5q-33 0 -76.5 -8t-83.5 -22v86q45 16 89.5 23t87.5 7q64 0 103.5 -16.5t60.5 -44
t28 -63.5t7 -76v-364zM383 120v135h-85q-44 0 -72.5 -4.5t-45 -15t-23.5 -29t-7 -46.5v-14q0 -40 17 -55t51 -15q13 0 34.5 3t45 9t46.5 14t39 18zM239 754h89l100 -148h-82l-63 80l-64 -80h-80z" />
    <glyph glyph-name="atilde" unicode="&#xe3;" horiz-adv-x="554" 
d="M486 0h-89l-10 45q-14 -8 -36 -18t-47 -18t-52 -13.5t-51 -5.5q-81 0 -118 39t-37 123v18q0 49 17.5 81t50 50.5t79 25.5t104.5 7h86v29q0 31 -4 52.5t-16 35.5t-34.5 20.5t-58.5 6.5q-33 0 -76.5 -8t-83.5 -22v86q45 16 89.5 23t87.5 7q64 0 103.5 -16.5t60.5 -44
t28 -63.5t7 -76v-364zM383 120v135h-85q-44 0 -72.5 -4.5t-45 -15t-23.5 -29t-7 -46.5v-14q0 -40 17 -55t51 -15q13 0 34.5 3t45 9t46.5 14t39 18zM341 608q-24 0 -39.5 8.5t-27.5 19t-22.5 19t-23.5 8.5q-17 0 -26 -17.5t-12 -35.5h-75q3 22 9.5 45.5t18.5 42t30.5 30.5
t45.5 12q25 0 42 -8.5t29.5 -19t23 -19t22.5 -8.5q19 0 26 18.5t9 36.5h75q-2 -21 -8 -44t-18 -42.5t-31 -32.5t-48 -13z" />
    <glyph glyph-name="adieresis" unicode="&#xe4;" horiz-adv-x="554" 
d="M486 0h-89l-10 45q-14 -8 -36 -18t-47 -18t-52 -13.5t-51 -5.5q-81 0 -118 39t-37 123v18q0 49 17.5 81t50 50.5t79 25.5t104.5 7h86v29q0 31 -4 52.5t-16 35.5t-34.5 20.5t-58.5 6.5q-33 0 -76.5 -8t-83.5 -22v86q45 16 89.5 23t87.5 7q64 0 103.5 -16.5t60.5 -44
t28 -63.5t7 -76v-364zM383 120v135h-85q-44 0 -72.5 -4.5t-45 -15t-23.5 -29t-7 -46.5v-14q0 -40 17 -55t51 -15q13 0 34.5 3t45 9t46.5 14t39 18zM143 718h96v-106h-96v106zM326 718h96v-106h-96v106z" />
    <glyph glyph-name="aring" unicode="&#xe5;" horiz-adv-x="554" 
d="M282 644q23 0 36.5 13.5t13.5 36.5t-13.5 37t-36.5 14q-22 0 -35.5 -14t-13.5 -37t13.5 -36.5t35.5 -13.5zM282 589q-23 0 -43 8.5t-34.5 23t-22.5 33.5t-8 40t8 40t22.5 33.5t34.5 22.5t43 8q24 0 44 -8t34.5 -22.5t22.5 -33.5t8 -40t-8 -40t-22.5 -33.5t-34.5 -23
t-44 -8.5zM486 0h-89l-10 45q-14 -8 -36 -18t-47 -18t-52 -13.5t-51 -5.5q-81 0 -118 39t-37 123v18q0 49 17.5 81t50 50.5t79 25.5t104.5 7h86v29q0 31 -4 52.5t-16 35.5t-34.5 20.5t-58.5 6.5q-33 0 -76.5 -8t-83.5 -22v86q45 16 89.5 23t87.5 7q64 0 103.5 -16.5
t60.5 -44t28 -63.5t7 -76v-364zM383 120v135h-85q-44 0 -72.5 -4.5t-45 -15t-23.5 -29t-7 -46.5v-14q0 -40 17 -55t51 -15q13 0 34.5 3t45 9t46.5 14t39 18z" />
    <glyph glyph-name="ae" unicode="&#xe6;" horiz-adv-x="899" 
d="M851 251h-371v-27q0 -33 6.5 -60.5t24 -46.5t49 -29.5t82.5 -10.5q32 0 74.5 5t82.5 19v-83q-35 -15 -80 -21.5t-81 -6.5q-78 0 -127.5 16t-80.5 57q-52 -35 -108 -54t-127 -19q-81 0 -118 39t-37 123v18q0 46 17.5 76.5t50 49t79 26.5t104.5 8h86v33q0 31 -4 52.5
t-16 35.5t-34.5 20.5t-58.5 6.5q-33 0 -76.5 -8t-83.5 -22v86q45 16 89.5 23t87.5 7q65 0 103 -17t61 -50q28 32 72.5 49.5t95.5 17.5q55 0 99.5 -13.5t75 -45t47 -84t16.5 -129.5v-41zM377 120v131h-85q-44 0 -72.5 -3.5t-45 -13.5t-23.5 -28t-7 -46v-14q0 -40 17 -55
t51 -15q16 0 38 3t45 9t44.5 14t37.5 18zM750 330v7q0 31 -7 57t-23 45t-42 29.5t-64 10.5q-35 0 -60 -10t-41.5 -28t-24 -43t-8.5 -55v-13h270z" />
    <glyph glyph-name="ccedilla" unicode="&#xe7;" horiz-adv-x="516" 
d="M270 -263q-40 0 -81 7v70q15 -2 30.5 -3t34.5 -1q44 0 58.5 12t14.5 26v8q0 20 -17 30t-67 10h-20v101q-88 17 -128 76t-40 168v62q0 139 66.5 200t189.5 61q42 0 80 -5.5t67 -17.5v-84q-24 8 -61.5 13.5t-76.5 5.5q-49 0 -80.5 -12.5t-49.5 -34.5t-24.5 -51.5
t-6.5 -63.5v-76q0 -36 6 -65.5t23.5 -50t48.5 -32t82 -11.5q33 0 71 5t78 19v-86q-34 -16 -77 -22t-78 -6v-43q33 -3 55 -10t35 -19t18 -28.5t5 -36.5v-8q0 -31 -12.5 -51.5t-33.5 -33t-49.5 -17.5t-60.5 -5z" />
    <glyph glyph-name="egrave" unicode="&#xe8;" horiz-adv-x="576" 
d="M528 246h-371v-22q0 -33 6.5 -60.5t24 -46.5t49 -29.5t82.5 -10.5q32 0 74.5 5t82.5 19v-83q-35 -15 -80 -21.5t-81 -6.5q-68 0 -117.5 14.5t-81 45.5t-46.5 78t-15 113v62q0 69 17.5 118.5t49 81t74.5 46.5t94 15q55 0 99.5 -13.5t75 -45t47 -84t16.5 -129.5v-46z
M427 325v7q0 31 -7 57.5t-23 46.5t-42 31.5t-64 11.5q-36 0 -61.5 -11.5t-41.5 -31.5t-23.5 -46.5t-7.5 -57.5v-7h270zM368 606h-105l-113 134h130z" />
    <glyph glyph-name="eacute" unicode="&#xe9;" horiz-adv-x="576" 
d="M528 246h-371v-22q0 -33 6.5 -60.5t24 -46.5t49 -29.5t82.5 -10.5q32 0 74.5 5t82.5 19v-83q-35 -15 -80 -21.5t-81 -6.5q-68 0 -117.5 14.5t-81 45.5t-46.5 78t-15 113v62q0 69 17.5 118.5t49 81t74.5 46.5t94 15q55 0 99.5 -13.5t75 -45t47 -84t16.5 -129.5v-46z
M427 325v7q0 31 -7 57.5t-23 46.5t-42 31.5t-64 11.5q-36 0 -61.5 -11.5t-41.5 -31.5t-23.5 -46.5t-7.5 -57.5v-7h270zM329 740h130l-113 -134h-105z" />
    <glyph glyph-name="ecircumflex" unicode="&#xea;" horiz-adv-x="576" 
d="M528 246h-371v-22q0 -33 6.5 -60.5t24 -46.5t49 -29.5t82.5 -10.5q32 0 74.5 5t82.5 19v-83q-35 -15 -80 -21.5t-81 -6.5q-68 0 -117.5 14.5t-81 45.5t-46.5 78t-15 113v62q0 69 17.5 118.5t49 81t74.5 46.5t94 15q55 0 99.5 -13.5t75 -45t47 -84t16.5 -129.5v-46z
M427 325v7q0 31 -7 57.5t-23 46.5t-42 31.5t-64 11.5q-36 0 -61.5 -11.5t-41.5 -31.5t-23.5 -46.5t-7.5 -57.5v-7h270zM244 754h89l100 -148h-82l-63 80l-64 -80h-80z" />
    <glyph glyph-name="edieresis" unicode="&#xeb;" horiz-adv-x="576" 
d="M528 246h-371v-22q0 -33 6.5 -60.5t24 -46.5t49 -29.5t82.5 -10.5q32 0 74.5 5t82.5 19v-83q-35 -15 -80 -21.5t-81 -6.5q-68 0 -117.5 14.5t-81 45.5t-46.5 78t-15 113v62q0 69 17.5 118.5t49 81t74.5 46.5t94 15q55 0 99.5 -13.5t75 -45t47 -84t16.5 -129.5v-46z
M427 325v7q0 31 -7 57.5t-23 46.5t-42 31.5t-64 11.5q-36 0 -61.5 -11.5t-41.5 -31.5t-23.5 -46.5t-7.5 -57.5v-7h270zM152 718h96v-106h-96v106zM335 718h96v-106h-96v106z" />
    <glyph glyph-name="igrave" unicode="&#xec;" horiz-adv-x="253" 
d="M178 0h-103v552h103v-552zM179 606h-108l-110 134h130z" />
    <glyph glyph-name="iacute" unicode="&#xed;" horiz-adv-x="253" 
d="M178 0h-103v552h103v-552zM163 740h131l-114 -135h-106z" />
    <glyph glyph-name="icircumflex" unicode="&#xee;" horiz-adv-x="253" 
d="M178 0h-103v552h103v-552zM82 754h89l100 -148h-82l-63 80l-64 -80h-80z" />
    <glyph glyph-name="idieresis" unicode="&#xef;" horiz-adv-x="253" 
d="M178 0h-103v552h103v-552zM-13 718h96v-106h-96v106zM170 718h96v-106h-96v106z" />
    <glyph glyph-name="eth" unicode="&#xf0;" horiz-adv-x="599" 
d="M195 774q35 -15 67 -31.5t61 -36.5l108 45l23 -58l-74 -31q78 -68 121 -160.5t43 -216.5v-46q0 -122 -66 -185.5t-179 -63.5t-178.5 63.5t-65.5 185.5v57q0 60 16.5 106.5t47 78.5t73 48.5t95.5 16.5q32 0 58 -7t43 -19q-18 33 -42 58.5t-53 46.5l-135 -56l-23 58l95 40
l-70 38zM299 76q66 0 104 40t38 131v46q0 87 -38.5 127t-103.5 40q-66 0 -103.5 -42t-37.5 -130v-41q0 -91 37.5 -131t103.5 -40z" />
    <glyph glyph-name="ntilde" unicode="&#xf1;" horiz-adv-x="602" 
d="M530 0h-103v373q0 49 -14.5 75t-65.5 26q-37 0 -82 -12.5t-87 -38.5v-423h-103v552h92l10 -43q42 24 92 39.5t92 15.5q93 0 131 -41.5t38 -117.5v-405zM364 608q-24 0 -39.5 8.5t-27.5 19t-22.5 19t-23.5 8.5q-17 0 -26 -17.5t-12 -35.5h-75q3 22 9.5 45.5t18.5 42
t30.5 30.5t45.5 12q25 0 42 -8.5t29.5 -19t23 -19t22.5 -8.5q19 0 26 18.5t9 36.5h75q-2 -21 -8 -44t-18 -42.5t-31 -32.5t-48 -13z" />
    <glyph glyph-name="ograve" unicode="&#xf2;" horiz-adv-x="599" 
d="M544 242q0 -121 -63.5 -186.5t-181.5 -65.5q-117 0 -180.5 65.5t-63.5 186.5v70q0 121 63.5 186.5t180.5 65.5q118 0 181.5 -65.5t63.5 -186.5v-70zM440 312q0 89 -37.5 127t-103.5 38q-65 0 -102.5 -38t-37.5 -127v-70q0 -89 37.5 -127t102.5 -38q66 0 103.5 38
t37.5 127v70zM356 606h-105l-113 134h130z" />
    <glyph glyph-name="oacute" unicode="&#xf3;" horiz-adv-x="599" 
d="M544 242q0 -121 -63.5 -186.5t-181.5 -65.5q-117 0 -180.5 65.5t-63.5 186.5v70q0 121 63.5 186.5t180.5 65.5q118 0 181.5 -65.5t63.5 -186.5v-70zM440 312q0 89 -37.5 127t-103.5 38q-65 0 -102.5 -38t-37.5 -127v-70q0 -89 37.5 -127t102.5 -38q66 0 103.5 38
t37.5 127v70zM329 740h130l-113 -134h-105z" />
    <glyph glyph-name="ocircumflex" unicode="&#xf4;" horiz-adv-x="599" 
d="M544 242q0 -121 -63.5 -186.5t-181.5 -65.5q-117 0 -180.5 65.5t-63.5 186.5v70q0 121 63.5 186.5t180.5 65.5q118 0 181.5 -65.5t63.5 -186.5v-70zM440 312q0 89 -37.5 127t-103.5 38q-65 0 -102.5 -38t-37.5 -127v-70q0 -89 37.5 -127t102.5 -38q66 0 103.5 38
t37.5 127v70zM255 754h89l100 -148h-82l-63 80l-64 -80h-80z" />
    <glyph glyph-name="otilde" unicode="&#xf5;" horiz-adv-x="599" 
d="M544 242q0 -121 -63.5 -186.5t-181.5 -65.5q-117 0 -180.5 65.5t-63.5 186.5v70q0 121 63.5 186.5t180.5 65.5q118 0 181.5 -65.5t63.5 -186.5v-70zM440 312q0 89 -37.5 127t-103.5 38q-65 0 -102.5 -38t-37.5 -127v-70q0 -89 37.5 -127t102.5 -38q66 0 103.5 38
t37.5 127v70zM360 608q-24 0 -39.5 8.5t-27.5 19t-22.5 19t-23.5 8.5q-17 0 -26 -17.5t-12 -35.5h-75q3 22 9.5 45.5t18.5 42t30.5 30.5t45.5 12q25 0 42 -8.5t29.5 -19t23 -19t22.5 -8.5q19 0 26 18.5t9 36.5h75q-2 -21 -8 -44t-18 -42.5t-31 -32.5t-48 -13z" />
    <glyph glyph-name="odieresis" unicode="&#xf6;" horiz-adv-x="599" 
d="M544 242q0 -121 -63.5 -186.5t-181.5 -65.5q-117 0 -180.5 65.5t-63.5 186.5v70q0 121 63.5 186.5t180.5 65.5q118 0 181.5 -65.5t63.5 -186.5v-70zM440 312q0 89 -37.5 127t-103.5 38q-65 0 -102.5 -38t-37.5 -127v-70q0 -89 37.5 -127t102.5 -38q66 0 103.5 38
t37.5 127v70zM160 718h96v-106h-96v106zM343 718h96v-106h-96v106z" />
    <glyph glyph-name="divide" unicode="&#xf7;" horiz-adv-x="586" 
d="M45 394h496v-94h-496v94zM233 218h120v-125h-120v125zM233 600h120v-125h-120v125z" />
    <glyph glyph-name="oslash" unicode="&#xf8;" horiz-adv-x="599" 
d="M544 242q0 -121 -63.5 -186.5t-181.5 -65.5q-71 0 -124 25l-39 -58h-91l69 103q-29 32 -44 77.5t-15 104.5v70q0 121 63.5 186.5t180.5 65.5q77 0 132 -29l33 49h91l-65 -97q54 -66 54 -175v-70zM299 477q-65 0 -102.5 -38t-37.5 -127v-70q0 -56 15 -92l206 308
q-32 19 -81 19zM440 312q0 49 -12 82l-202 -302q15 -8 33.5 -11.5t39.5 -3.5q66 0 103.5 38t37.5 127v70z" />
    <glyph glyph-name="ugrave" unicode="&#xf9;" horiz-adv-x="597" 
d="M72 552h103v-372q0 -24 2.5 -43t11 -32t24 -19.5t41.5 -6.5q37 0 80 12.5t85 38.5v422h103v-552h-92l-10 45q-42 -24 -90 -39.5t-90 -15.5q-93 0 -130.5 41t-37.5 118v403zM371 606h-105l-113 134h130z" />
    <glyph glyph-name="uacute" unicode="&#xfa;" horiz-adv-x="597" 
d="M72 552h103v-372q0 -24 2.5 -43t11 -32t24 -19.5t41.5 -6.5q37 0 80 12.5t85 38.5v422h103v-552h-92l-10 45q-42 -24 -90 -39.5t-90 -15.5q-93 0 -130.5 41t-37.5 118v403zM335 740h130l-113 -134h-105z" />
    <glyph glyph-name="ucircumflex" unicode="&#xfb;" horiz-adv-x="597" 
d="M72 552h103v-372q0 -24 2.5 -43t11 -32t24 -19.5t41.5 -6.5q37 0 80 12.5t85 38.5v422h103v-552h-92l-10 45q-42 -24 -90 -39.5t-90 -15.5q-93 0 -130.5 41t-37.5 118v403zM255 754h89l100 -148h-82l-63 80l-64 -80h-80z" />
    <glyph glyph-name="udieresis" unicode="&#xfc;" horiz-adv-x="597" 
d="M72 552h103v-372q0 -24 2.5 -43t11 -32t24 -19.5t41.5 -6.5q37 0 80 12.5t85 38.5v422h103v-552h-92l-10 45q-42 -24 -90 -39.5t-90 -15.5q-93 0 -130.5 41t-37.5 118v403zM165 718h96v-106h-96v106zM348 718h96v-106h-96v106z" />
    <glyph glyph-name="yacute" unicode="&#xfd;" horiz-adv-x="540" 
d="M530 552l-286 -768h-103l79 217l-210 551h112l120 -346q7 -19 16 -49t15 -65h1q6 31 14.5 63.5t15.5 50.5l122 346h104zM304 740h130l-113 -134h-105z" />
    <glyph glyph-name="thorn" unicode="&#xfe;" horiz-adv-x="615" 
d="M75 744l103 30v-263q33 19 83.5 36t104.5 17q49 0 85 -15.5t60 -42.5t35.5 -63t11.5 -78v-145q0 -119 -60 -175t-178 -56q-13 0 -31.5 1.5t-38 5t-38.5 8t-34 10.5v-230h-103v960zM454 334q0 70 -23 105t-88 35q-45 0 -89 -15t-76 -33v-326q30 -11 67.5 -17t66.5 -6
q48 0 76 13t42.5 35t19 49.5t4.5 56.5v103z" />
    <glyph glyph-name="ydieresis" unicode="&#xff;" horiz-adv-x="540" 
d="M530 552l-286 -768h-103l79 217l-210 551h112l120 -346q7 -19 16 -49t15 -65h1q6 31 14.5 63.5t15.5 50.5l122 346h104zM135 718h96v-106h-96v106zM318 718h96v-106h-96v106z" />
    <glyph glyph-name="Amacron" unicode="&#x100;" horiz-adv-x="688" 
d="M678 0h-116l-75 211h-296l-74 -211h-107l275 750h103zM224 305h228l-69 195q-13 35 -23.5 67.5t-21.5 71.5q-11 -39 -22 -72t-23 -67zM198 920h292v-80h-292v80z" />
    <glyph glyph-name="amacron" unicode="&#x101;" horiz-adv-x="554" 
d="M486 0h-89l-10 45q-14 -8 -36 -18t-47 -18t-52 -13.5t-51 -5.5q-81 0 -118 39t-37 123v18q0 49 17.5 81t50 50.5t79 25.5t104.5 7h86v29q0 31 -4 52.5t-16 35.5t-34.5 20.5t-58.5 6.5q-33 0 -76.5 -8t-83.5 -22v86q45 16 89.5 23t87.5 7q64 0 103.5 -16.5t60.5 -44
t28 -63.5t7 -76v-364zM383 120v135h-85q-44 0 -72.5 -4.5t-45 -15t-23.5 -29t-7 -46.5v-14q0 -40 17 -55t51 -15q13 0 34.5 3t45 9t46.5 14t39 18zM140 720h292v-80h-292v80z" />
    <glyph glyph-name="Abreve" unicode="&#x102;" horiz-adv-x="688" 
d="M344 806q-32 0 -57 10.5t-43 29.5t-28 44t-12 54h73q5 -29 20 -46.5t47 -17.5q33 0 47.5 17.5t19.5 46.5h73q-1 -29 -11 -54t-28 -44t-43.5 -29.5t-57.5 -10.5zM678 0h-116l-75 211h-296l-74 -211h-107l275 750h103zM224 305h228l-69 195q-13 35 -23.5 67.5t-21.5 71.5
q-11 -39 -22 -72t-23 -67z" />
    <glyph glyph-name="abreve" unicode="&#x103;" horiz-adv-x="554" 
d="M295 606q-32 0 -57 10.5t-43 29.5t-28 44t-12 54h73q5 -29 20 -46.5t47 -17.5q33 0 47.5 17.5t19.5 46.5h73q-1 -29 -11 -54t-28 -44t-43.5 -29.5t-57.5 -10.5zM486 0h-89l-10 45q-14 -8 -36 -18t-47 -18t-52 -13.5t-51 -5.5q-81 0 -118 39t-37 123v18q0 49 17.5 81
t50 50.5t79 25.5t104.5 7h86v29q0 31 -4 52.5t-16 35.5t-34.5 20.5t-58.5 6.5q-33 0 -76.5 -8t-83.5 -22v86q45 16 89.5 23t87.5 7q64 0 103.5 -16.5t60.5 -44t28 -63.5t7 -76v-364zM383 120v135h-85q-44 0 -72.5 -4.5t-45 -15t-23.5 -29t-7 -46.5v-14q0 -40 17 -55t51 -15
q13 0 34.5 3t45 9t46.5 14t39 18z" />
    <glyph glyph-name="Aogonek" unicode="&#x104;" horiz-adv-x="688" 
d="M619 -223q-65 0 -100.5 27.5t-35.5 69.5v9q0 16 7 32.5t18.5 30.5t26.5 26t30 20l-78 219h-296l-74 -211h-107l275 750h103l290 -750q-41 -21 -65.5 -50t-24.5 -52v-8q0 -20 15 -28t42 -8q15 0 29.5 2t25.5 5v-73q-13 -4 -33 -7.5t-48 -3.5zM224 305h228l-69 195
q-13 35 -23.5 67.5t-21.5 71.5q-11 -39 -22 -72t-23 -67z" />
    <glyph glyph-name="aogonek" unicode="&#x105;" horiz-adv-x="554" 
d="M421 -223q-65 0 -100.5 27.5t-35.5 69.5v9q0 19 10 38t25.5 34.5t34.5 27.5t36 17h89q-41 -21 -65.5 -50t-24.5 -52v-8q0 -20 15 -28t42 -8q15 0 29.5 2t25.5 5v-73q-13 -4 -33 -7.5t-48 -3.5zM486 0h-89l-10 45q-14 -8 -36 -18t-47 -18t-52 -13.5t-51 -5.5
q-81 0 -118 39t-37 123v18q0 49 17.5 81t50 50.5t79 25.5t104.5 7h86v29q0 31 -4 52.5t-16 35.5t-34.5 20.5t-58.5 6.5q-33 0 -76.5 -8t-83.5 -22v86q45 16 89.5 23t87.5 7q64 0 103.5 -16.5t60.5 -44t28 -63.5t7 -76v-364zM383 120v135h-85q-44 0 -72.5 -4.5t-45 -15
t-23.5 -29t-7 -46.5v-14q0 -40 17 -55t51 -15q13 0 34.5 3t45 9t46.5 14t39 18z" />
    <glyph glyph-name="Cacute" unicode="&#x106;" horiz-adv-x="621" 
d="M570 647q-30 10 -80 15.5t-98 5.5q-79 0 -125 -18t-70 -48.5t-31 -71.5t-7 -86v-131q0 -47 5.5 -89t28.5 -73.5t69.5 -49.5t128.5 -18q40 0 89.5 4.5t100.5 20.5v-89q-22 -9 -48 -15t-52 -9.5t-51 -5t-45 -1.5q-92 0 -155.5 17t-103 55t-57 99t-17.5 150v122
q0 94 21 157.5t62.5 102t103.5 55t145 16.5q51 0 100 -5.5t86 -19.5v-90zM378 940h130l-113 -134h-105z" />
    <glyph glyph-name="cacute" unicode="&#x107;" horiz-adv-x="516" 
d="M458 541v-84q-24 8 -61.5 13.5t-76.5 5.5q-49 0 -80.5 -12.5t-49.5 -34.5t-24.5 -51.5t-6.5 -63.5v-76q0 -36 6 -65.5t23.5 -50t48.5 -32t82 -11.5q33 0 71 5t78 19v-86q-34 -16 -77.5 -22t-78.5 -6q-134 0 -195.5 60t-61.5 192v62q0 139 66.5 200t189.5 61q42 0 80 -5.5
t67 -17.5zM311 740h130l-113 -134h-105z" />
    <glyph glyph-name="Ccircumflex" unicode="&#x108;" horiz-adv-x="621" 
d="M570 647q-30 10 -80 15.5t-98 5.5q-79 0 -125 -18t-70 -48.5t-31 -71.5t-7 -86v-131q0 -47 5.5 -89t28.5 -73.5t69.5 -49.5t128.5 -18q40 0 89.5 4.5t100.5 20.5v-89q-22 -9 -48 -15t-52 -9.5t-51 -5t-45 -1.5q-92 0 -155.5 17t-103 55t-57 99t-17.5 150v122
q0 94 21 157.5t62.5 102t103.5 55t145 16.5q51 0 100 -5.5t86 -19.5v-90zM309 954h89l100 -148h-82l-63 80l-64 -80h-80z" />
    <glyph glyph-name="ccircumflex" unicode="&#x109;" horiz-adv-x="516" 
d="M458 541v-84q-24 8 -61.5 13.5t-76.5 5.5q-49 0 -80.5 -12.5t-49.5 -34.5t-24.5 -51.5t-6.5 -63.5v-76q0 -36 6 -65.5t23.5 -50t48.5 -32t82 -11.5q33 0 71 5t78 19v-86q-34 -16 -77.5 -22t-78.5 -6q-134 0 -195.5 60t-61.5 192v62q0 139 66.5 200t189.5 61q42 0 80 -5.5
t67 -17.5zM247 754h89l100 -148h-82l-63 80l-64 -80h-80z" />
    <glyph glyph-name="Cdotaccent" unicode="&#x10a;" horiz-adv-x="621" 
d="M304 918h98v-106h-98v106zM570 647q-30 10 -80 15.5t-98 5.5q-79 0 -125 -18t-70 -48.5t-31 -71.5t-7 -86v-131q0 -47 5.5 -89t28.5 -73.5t69.5 -49.5t128.5 -18q40 0 89.5 4.5t100.5 20.5v-89q-22 -9 -48 -15t-52 -9.5t-51 -5t-45 -1.5q-92 0 -155.5 17t-103 55t-57 99
t-17.5 150v122q0 94 21 157.5t62.5 102t103.5 55t145 16.5q51 0 100 -5.5t86 -19.5v-90z" />
    <glyph glyph-name="cdotaccent" unicode="&#x10b;" horiz-adv-x="516" 
d="M247 718h98v-106h-98v106zM458 541v-84q-24 8 -61.5 13.5t-76.5 5.5q-49 0 -80.5 -12.5t-49.5 -34.5t-24.5 -51.5t-6.5 -63.5v-76q0 -36 6 -65.5t23.5 -50t48.5 -32t82 -11.5q33 0 71 5t78 19v-86q-34 -16 -77.5 -22t-78.5 -6q-134 0 -195.5 60t-61.5 192v62
q0 139 66.5 200t189.5 61q42 0 80 -5.5t67 -17.5z" />
    <glyph glyph-name="Ccaron" unicode="&#x10c;" horiz-adv-x="621" 
d="M398 796h-89l-100 148h82l63 -80l64 80h80zM570 647q-30 10 -80 15.5t-98 5.5q-79 0 -125 -18t-70 -48.5t-31 -71.5t-7 -86v-131q0 -47 5.5 -89t28.5 -73.5t69.5 -49.5t128.5 -18q40 0 89.5 4.5t100.5 20.5v-89q-22 -9 -48 -15t-52 -9.5t-51 -5t-45 -1.5q-92 0 -155.5 17
t-103 55t-57 99t-17.5 150v122q0 94 21 157.5t62.5 102t103.5 55t145 16.5q51 0 100 -5.5t86 -19.5v-90z" />
    <glyph glyph-name="ccaron" unicode="&#x10d;" horiz-adv-x="516" 
d="M336 596h-89l-100 148h82l63 -80l64 80h80zM458 541v-84q-24 8 -61.5 13.5t-76.5 5.5q-49 0 -80.5 -12.5t-49.5 -34.5t-24.5 -51.5t-6.5 -63.5v-76q0 -36 6 -65.5t23.5 -50t48.5 -32t82 -11.5q33 0 71 5t78 19v-86q-34 -16 -77.5 -22t-78.5 -6q-134 0 -195.5 60
t-61.5 192v62q0 139 66.5 200t189.5 61q42 0 80 -5.5t67 -17.5z" />
    <glyph glyph-name="Dcaron" unicode="&#x10e;" horiz-adv-x="716" 
d="M412 796h-89l-100 148h82l63 -80l64 80h80zM80 0v750h258q94 0 156.5 -18t100 -58t53.5 -104t16 -155v-98q0 -90 -15 -151t-51.5 -98t-98.5 -52.5t-156 -15.5h-263zM186 655v-560h152q72 0 115.5 14t67 41t30.5 67t7 93v122q0 52 -7 93t-29.5 70t-65 44.5t-113.5 15.5
h-157z" />
    <glyph glyph-name="dcaron" unicode="&#x10f;" horiz-adv-x="618" 
d="M703 761l-32 -167h-78l9 167h101zM252 -10q-51 0 -87.5 15t-60 41.5t-34 62.5t-10.5 78v151q0 60 16 103t46 70t73 40t97 13q18 0 39 -2.5t41 -7t38 -11t30 -13.5v214l103 30v-774h-93l-10 43q-21 -13 -46 -23t-50 -16.5t-49 -10t-43 -3.5zM440 124v319q-13 8 -30 14
t-34.5 10.5t-34.5 6.5t-30 2q-33 0 -60.5 -6t-46.5 -21.5t-29.5 -42t-10.5 -68.5v-133q0 -63 23.5 -94.5t80.5 -31.5q38 0 82.5 9.5t89.5 35.5z" />
    <glyph glyph-name="Dcroat" unicode="&#x110;" horiz-adv-x="716" 
d="M80 0v342h-70v88h70v320h258q94 0 156.5 -18t100 -58t53.5 -104t16 -155v-98q0 -90 -15 -151t-51.5 -98t-98.5 -52.5t-156 -15.5h-263zM186 655v-225h222v-88h-222v-247h152q72 0 115.5 14t67 41t30.5 67t7 93v122q0 52 -7 93t-29.5 70t-65 44.5t-113.5 15.5h-157z" />
    <glyph glyph-name="dcroat" unicode="&#x111;" horiz-adv-x="615" 
d="M283 679h154v65l103 30v-95h66v-71h-66v-608h-93l-10 43q-21 -13 -46 -23t-50 -16.5t-49 -10t-43 -3.5q-51 0 -87.5 15t-60 41.5t-34 62.5t-10.5 78v139q0 60 16 103t46 70t73 40t97 13q18 0 39 -2.5t41 -7t38 -11t30 -13.5v90h-154v71zM437 124v307q-13 8 -30 14
t-34.5 10.5t-34.5 6.5t-30 2q-33 0 -60.5 -6t-46.5 -21.5t-29.5 -42t-10.5 -68.5v-121q0 -63 23.5 -94.5t80.5 -31.5q38 0 82.5 9.5t89.5 35.5z" />
    <glyph glyph-name="Emacron" unicode="&#x112;" horiz-adv-x="611" 
d="M557 750v-95h-371v-221h338v-93h-338v-246h385v-95h-491v750h477zM183 920h292v-80h-292v80z" />
    <glyph glyph-name="emacron" unicode="&#x113;" horiz-adv-x="576" 
d="M528 246h-371v-22q0 -33 6.5 -60.5t24 -46.5t49 -29.5t82.5 -10.5q32 0 74.5 5t82.5 19v-83q-35 -15 -80 -21.5t-81 -6.5q-68 0 -117.5 14.5t-81 45.5t-46.5 78t-15 113v62q0 69 17.5 118.5t49 81t74.5 46.5t94 15q55 0 99.5 -13.5t75 -45t47 -84t16.5 -129.5v-46z
M427 325v7q0 31 -7 57.5t-23 46.5t-42 31.5t-64 11.5q-36 0 -61.5 -11.5t-41.5 -31.5t-23.5 -46.5t-7.5 -57.5v-7h270zM142 720h292v-80h-292v80z" />
    <glyph glyph-name="Ebreve" unicode="&#x114;" horiz-adv-x="611" 
d="M334 806q-32 0 -57 10.5t-43 29.5t-28 44t-12 54h73q5 -29 20 -46.5t47 -17.5q33 0 47.5 17.5t19.5 46.5h73q-1 -29 -11 -54t-28 -44t-43.5 -29.5t-57.5 -10.5zM557 750v-95h-371v-221h338v-93h-338v-246h385v-95h-491v750h477z" />
    <glyph glyph-name="ebreve" unicode="&#x115;" horiz-adv-x="576" 
d="M288 606q-32 0 -57 10.5t-43 29.5t-28 44t-12 54h73q5 -29 20 -46.5t47 -17.5q33 0 47.5 17.5t19.5 46.5h73q-1 -29 -11 -54t-28 -44t-43.5 -29.5t-57.5 -10.5zM528 246h-371v-22q0 -33 6.5 -60.5t24 -46.5t49 -29.5t82.5 -10.5q32 0 74.5 5t82.5 19v-83
q-35 -15 -80 -21.5t-81 -6.5q-68 0 -117.5 14.5t-81 45.5t-46.5 78t-15 113v62q0 69 17.5 118.5t49 81t74.5 46.5t94 15q55 0 99.5 -13.5t75 -45t47 -84t16.5 -129.5v-46zM427 325v7q0 31 -7 57.5t-23 46.5t-42 31.5t-64 11.5q-36 0 -61.5 -11.5t-41.5 -31.5t-23.5 -46.5
t-7.5 -57.5v-7h270z" />
    <glyph glyph-name="Edotaccent" unicode="&#x116;" horiz-adv-x="611" 
d="M279 918h98v-106h-98v106zM557 750v-95h-371v-221h338v-93h-338v-246h385v-95h-491v750h477z" />
    <glyph glyph-name="edotaccent" unicode="&#x117;" horiz-adv-x="576" 
d="M239 718h98v-106h-98v106zM528 246h-371v-22q0 -33 6.5 -60.5t24 -46.5t49 -29.5t82.5 -10.5q32 0 74.5 5t82.5 19v-83q-35 -15 -80 -21.5t-81 -6.5q-68 0 -117.5 14.5t-81 45.5t-46.5 78t-15 113v62q0 69 17.5 118.5t49 81t74.5 46.5t94 15q55 0 99.5 -13.5t75 -45
t47 -84t16.5 -129.5v-46zM427 325v7q0 31 -7 57.5t-23 46.5t-42 31.5t-64 11.5q-36 0 -61.5 -11.5t-41.5 -31.5t-23.5 -46.5t-7.5 -57.5v-7h270z" />
    <glyph glyph-name="Eogonek" unicode="&#x118;" horiz-adv-x="611" 
d="M557 750v-95h-371v-221h338v-93h-338v-246h385v-95h-56q-41 -21 -65.5 -50t-24.5 -52v-8q0 -20 15 -28t42 -8q15 0 29.5 2t25.5 5v-73q-13 -4 -33 -7.5t-48 -3.5q-65 0 -100.5 27.5t-35.5 69.5v9q0 19 9.5 38t24.5 34.5t33.5 27.5t35.5 17h-343v750h477z" />
    <glyph glyph-name="eogonek" unicode="&#x119;" horiz-adv-x="576" 
d="M528 246h-371v-22q0 -33 6.5 -60.5t24 -46.5t49 -29.5t82.5 -10.5q32 0 74.5 5t82.5 19v-83q-6 -3 -12.5 -5.5t-13.5 -4.5q-42 -20 -69 -51t-27 -59v-8q0 -20 15 -28t42 -8q15 0 29.5 2t25.5 5v-73q-13 -4 -33 -7.5t-48 -3.5q-65 0 -100.5 27.5t-35.5 69.5v9q0 17 7.5 33
t19.5 30t27 25t30 19h-18q-68 0 -117.5 14.5t-81 45.5t-46.5 78t-15 113v62q0 69 17.5 118.5t49 81t74.5 46.5t94 15q55 0 99.5 -13.5t75 -45t47 -84t16.5 -129.5v-46zM427 325v7q0 31 -7 57.5t-23 46.5t-42 31.5t-64 11.5q-36 0 -61.5 -11.5t-41.5 -31.5t-23.5 -46.5
t-7.5 -57.5v-7h270z" />
    <glyph glyph-name="Ecaron" unicode="&#x11a;" horiz-adv-x="611" 
d="M379 796h-89l-100 148h82l63 -80l64 80h80zM557 750v-95h-371v-221h338v-93h-338v-246h385v-95h-491v750h477z" />
    <glyph glyph-name="ecaron" unicode="&#x11b;" horiz-adv-x="576" 
d="M342 596h-89l-100 148h82l63 -80l64 80h80zM528 246h-371v-22q0 -33 6.5 -60.5t24 -46.5t49 -29.5t82.5 -10.5q32 0 74.5 5t82.5 19v-83q-35 -15 -80 -21.5t-81 -6.5q-68 0 -117.5 14.5t-81 45.5t-46.5 78t-15 113v62q0 69 17.5 118.5t49 81t74.5 46.5t94 15
q55 0 99.5 -13.5t75 -45t47 -84t16.5 -129.5v-46zM427 325v7q0 31 -7 57.5t-23 46.5t-42 31.5t-64 11.5q-36 0 -61.5 -11.5t-41.5 -31.5t-23.5 -46.5t-7.5 -57.5v-7h270z" />
    <glyph glyph-name="Gcircumflex" unicode="&#x11c;" horiz-adv-x="692" 
d="M576 648q-16 5 -37.5 8.5t-45.5 6t-48.5 4t-45.5 1.5q-82 0 -130 -17.5t-72.5 -48t-31 -71.5t-6.5 -87v-133q0 -51 6.5 -93.5t31.5 -72.5t73.5 -46.5t132.5 -16.5q30 0 63 2.5t62 8.5v224h-156v91h260v-385q-26 -10 -57.5 -16.5t-64.5 -10.5t-64 -6t-56 -2
q-94 0 -158.5 17t-104.5 55t-57.5 99t-17.5 150v121q0 94 20 157.5t61.5 102.5t105.5 55.5t152 16.5q46 0 96 -5t89 -19v-90zM309 954h89l100 -148h-82l-63 80l-64 -80h-80z" />
    <glyph glyph-name="gcircumflex" unicode="&#x11d;" horiz-adv-x="618" 
d="M254 -6q-54 0 -91 15.5t-60 43t-33 64.5t-10 80v139q0 118 60.5 173t162.5 55q20 0 43.5 -3.5t45.5 -9.5t40.5 -15t30.5 -21l8 37h92v-573q0 -51 -12.5 -89t-41.5 -63t-76 -37.5t-115 -12.5q-36 0 -72.5 4.5t-64.5 10.5v85q29 -7 65 -10.5t63 -3.5q43 0 72 5.5t46.5 19
t25 36.5t7.5 58v54q-36 -20 -86 -31t-100 -11zM440 118v312q-21 19 -62.5 32.5t-86.5 13.5q-26 0 -49.5 -6.5t-40.5 -22t-27 -42.5t-10 -69v-122q0 -67 23 -99t86 -32q42 0 85.5 8.5t81.5 26.5zM266 754h89l100 -148h-82l-63 80l-64 -80h-80z" />
    <glyph glyph-name="Gbreve" unicode="&#x11e;" horiz-adv-x="692" 
d="M359 806q-32 0 -57 10.5t-43 29.5t-28 44t-12 54h73q5 -29 20 -46.5t47 -17.5q33 0 47.5 17.5t19.5 46.5h73q-1 -29 -11 -54t-28 -44t-43.5 -29.5t-57.5 -10.5zM576 648q-16 5 -37.5 8.5t-45.5 6t-48.5 4t-45.5 1.5q-82 0 -130 -17.5t-72.5 -48t-31 -71.5t-6.5 -87v-133
q0 -51 6.5 -93.5t31.5 -72.5t73.5 -46.5t132.5 -16.5q30 0 63 2.5t62 8.5v224h-156v91h260v-385q-26 -10 -57.5 -16.5t-64.5 -10.5t-64 -6t-56 -2q-94 0 -158.5 17t-104.5 55t-57.5 99t-17.5 150v121q0 94 20 157.5t61.5 102.5t105.5 55.5t152 16.5q46 0 96 -5t89 -19v-90z
" />
    <glyph glyph-name="gbreve" unicode="&#x11f;" horiz-adv-x="618" 
d="M254 -6q-54 0 -91 15.5t-60 43t-33 64.5t-10 80v139q0 118 60.5 173t162.5 55q20 0 43.5 -3.5t45.5 -9.5t40.5 -15t30.5 -21l8 37h92v-573q0 -51 -12.5 -89t-41.5 -63t-76 -37.5t-115 -12.5q-36 0 -72.5 4.5t-64.5 10.5v85q29 -7 65 -10.5t63 -3.5q43 0 72 5.5t46.5 19
t25 36.5t7.5 58v54q-36 -20 -86 -31t-100 -11zM440 118v312q-21 19 -62.5 32.5t-86.5 13.5q-26 0 -49.5 -6.5t-40.5 -22t-27 -42.5t-10 -69v-122q0 -67 23 -99t86 -32q42 0 85.5 8.5t81.5 26.5zM310 606q-32 0 -57 10.5t-43 29.5t-28 44t-12 54h73q5 -29 20 -46.5t47 -17.5
q33 0 47.5 17.5t19.5 46.5h73q-1 -29 -11 -54t-28 -44t-43.5 -29.5t-57.5 -10.5z" />
    <glyph glyph-name="Gdotaccent" unicode="&#x120;" horiz-adv-x="692" 
d="M304 918h98v-106h-98v106zM576 648q-16 5 -37.5 8.5t-45.5 6t-48.5 4t-45.5 1.5q-82 0 -130 -17.5t-72.5 -48t-31 -71.5t-6.5 -87v-133q0 -51 6.5 -93.5t31.5 -72.5t73.5 -46.5t132.5 -16.5q30 0 63 2.5t62 8.5v224h-156v91h260v-385q-26 -10 -57.5 -16.5t-64.5 -10.5
t-64 -6t-56 -2q-94 0 -158.5 17t-104.5 55t-57.5 99t-17.5 150v121q0 94 20 157.5t61.5 102.5t105.5 55.5t152 16.5q46 0 96 -5t89 -19v-90z" />
    <glyph glyph-name="gdotaccent" unicode="&#x121;" horiz-adv-x="618" 
d="M254 -6q-54 0 -91 15.5t-60 43t-33 64.5t-10 80v139q0 118 60.5 173t162.5 55q20 0 43.5 -3.5t45.5 -9.5t40.5 -15t30.5 -21l8 37h92v-573q0 -51 -12.5 -89t-41.5 -63t-76 -37.5t-115 -12.5q-36 0 -72.5 4.5t-64.5 10.5v85q29 -7 65 -10.5t63 -3.5q43 0 72 5.5t46.5 19
t25 36.5t7.5 58v54q-36 -20 -86 -31t-100 -11zM440 118v312q-21 19 -62.5 32.5t-86.5 13.5q-26 0 -49.5 -6.5t-40.5 -22t-27 -42.5t-10 -69v-122q0 -67 23 -99t86 -32q42 0 85.5 8.5t81.5 26.5zM261 718h98v-106h-98v106z" />
    <glyph glyph-name="uni0122" unicode="&#x122;" horiz-adv-x="692" 
d="M576 648q-16 5 -37.5 8.5t-45.5 6t-48.5 4t-45.5 1.5q-82 0 -130 -17.5t-72.5 -48t-31 -71.5t-6.5 -87v-133q0 -51 6.5 -93.5t31.5 -72.5t73.5 -46.5t132.5 -16.5q30 0 63 2.5t62 8.5v224h-156v91h260v-385q-26 -10 -57.5 -16.5t-64.5 -10.5t-64 -6t-56 -2
q-94 0 -158.5 17t-104.5 55t-57.5 99t-17.5 150v121q0 94 20 157.5t61.5 102.5t105.5 55.5t152 16.5q46 0 96 -5t89 -19v-90zM320 -56h116l-64 -177h-91z" />
    <glyph glyph-name="uni0123" unicode="&#x123;" horiz-adv-x="618" 
d="M254 -6q-54 0 -91 15.5t-60 43t-33 64.5t-10 80v139q0 118 60.5 173t162.5 55q20 0 43.5 -3.5t45.5 -9.5t40.5 -15t30.5 -21l8 37h92v-573q0 -51 -12.5 -89t-41.5 -63t-76 -37.5t-115 -12.5q-36 0 -72.5 4.5t-64.5 10.5v85q29 -7 65 -10.5t63 -3.5q43 0 72 5.5t46.5 19
t25 36.5t7.5 58v54q-36 -20 -86 -31t-100 -11zM440 118v312q-21 19 -62.5 32.5t-86.5 13.5q-26 0 -49.5 -6.5t-40.5 -22t-27 -42.5t-10 -69v-122q0 -67 23 -99t86 -32q42 0 85.5 8.5t81.5 26.5zM359 606h-116l64 177h91z" />
    <glyph glyph-name="Hcircumflex" unicode="&#x124;" horiz-adv-x="734" 
d="M654 750v-750h-106v341h-362v-341h-106v750h106v-313h362v313h106zM323 954h89l100 -148h-82l-63 80l-64 -80h-80z" />
    <glyph glyph-name="hcircumflex" unicode="&#x125;" horiz-adv-x="602" 
d="M530 0h-103v373q0 49 -14.5 75t-65.5 26q-40 0 -83.5 -13t-85.5 -35v-426h-103v744l103 30v-263q42 22 91 37.5t92 15.5q93 0 131 -41t38 -118v-405zM277 954h89l100 -148h-82l-63 80l-64 -80h-80z" />
    <glyph glyph-name="Hbar" unicode="&#x126;" horiz-adv-x="754" 
d="M10 595h80v155h106v-155h362v155h106v-155h80v-81h-80v-514h-106v301h-362v-301h-106v514h-80v81zM558 397v117h-362v-117h362z" />
    <glyph glyph-name="hbar" unicode="&#x127;" horiz-adv-x="610" 
d="M540 0h-103v361q0 49 -14.5 75t-65.5 26q-40 0 -83.5 -13t-85.5 -35v-414h-103v598h-75v81h75v65l103 30v-95h145v-81h-145v-99q42 22 91 37.5t92 15.5q93 0 131 -41t38 -118v-393z" />
    <glyph glyph-name="Itilde" unicode="&#x128;" horiz-adv-x="266" 
d="M186 0h-106v750h106v-750zM194 808q-24 0 -39.5 8.5t-27.5 19t-22.5 19t-23.5 8.5q-17 0 -26 -17.5t-12 -35.5h-75q3 22 9.5 45.5t18.5 42t30.5 30.5t45.5 12q25 0 42 -8.5t29.5 -19t23 -19t22.5 -8.5q19 0 26 18.5t9 36.5h75q-2 -21 -8 -44t-18 -42.5t-31 -32.5t-48 -13
z" />
    <glyph glyph-name="itilde" unicode="&#x129;" horiz-adv-x="253" 
d="M178 0h-103v552h103v-552zM187 608q-24 0 -39.5 8.5t-27.5 19t-22.5 19t-23.5 8.5q-17 0 -26 -17.5t-12 -35.5h-75q3 22 9.5 45.5t18.5 42t30.5 30.5t45.5 12q25 0 42 -8.5t29.5 -19t23 -19t22.5 -8.5q19 0 26 18.5t9 36.5h75q-2 -21 -8 -44t-18 -42.5t-31 -32.5t-48 -13
z" />
    <glyph glyph-name="Imacron" unicode="&#x12a;" horiz-adv-x="266" 
d="M186 0h-106v750h106v-750zM-13 913h292v-80h-292v80z" />
    <glyph glyph-name="imacron" unicode="&#x12b;" horiz-adv-x="253" 
d="M178 0h-103v552h103v-552zM-19 720h292v-80h-292v80z" />
    <glyph glyph-name="Ibreve" unicode="&#x12c;" horiz-adv-x="266" 
d="M133 806q-32 0 -57 10.5t-43 29.5t-28 44t-12 54h73q5 -29 20 -46.5t47 -17.5q33 0 47.5 17.5t19.5 46.5h73q-1 -29 -11 -54t-28 -44t-43.5 -29.5t-57.5 -10.5zM186 0h-106v750h106v-750z" />
    <glyph glyph-name="ibreve" unicode="&#x12d;" horiz-adv-x="253" 
d="M127 606q-32 0 -57 10.5t-43 29.5t-28 44t-12 54h73q5 -29 20 -46.5t47 -17.5q33 0 47.5 17.5t19.5 46.5h73q-1 -29 -11 -54t-28 -44t-43.5 -29.5t-57.5 -10.5zM178 0h-103v552h103v-552z" />
    <glyph glyph-name="Iogonek" unicode="&#x12e;" horiz-adv-x="266" 
d="M127 -223q-65 0 -100.5 27.5t-35.5 69.5v9q0 18 8 35t20.5 31.5t28.5 26.5t32 19v755h106v-750q-41 -21 -65.5 -50t-24.5 -52v-8q0 -20 15 -28t42 -8q15 0 29.5 2t25.5 5v-73q-13 -4 -33 -7.5t-48 -3.5z" />
    <glyph glyph-name="iogonek" unicode="&#x12f;" horiz-adv-x="253" 
d="M119 -223q-65 0 -100.5 27.5t-35.5 69.5v9q0 18 8 35.5t21.5 32.5t29.5 26.5t33 18.5v556h103v-552q-41 -21 -65.5 -50t-24.5 -52v-8q0 -20 15 -28t42 -8q15 0 29.5 2t25.5 5v-73q-13 -4 -33 -7.5t-48 -3.5zM178 655h-103v111h103v-111z" />
    <glyph glyph-name="Idotaccent" unicode="&#x130;" horiz-adv-x="266" 
d="M84 918h98v-106h-98v106zM186 0h-106v750h106v-750z" />
    <glyph glyph-name="dotlessi" unicode="&#x131;" horiz-adv-x="253" 
d="M178 0h-103v552h103v-552z" />
    <glyph glyph-name="IJ" unicode="&#x132;" horiz-adv-x="672" 
d="M186 0h-106v750h106v-750zM596 750v-561q0 -51 -10 -88t-33.5 -62t-63 -37t-97.5 -12q-28 0 -62 5t-54 13v94q32 -10 61.5 -13t52.5 -3q51 0 75.5 23.5t24.5 85.5v555h106z" />
    <glyph glyph-name="ij" unicode="&#x133;" horiz-adv-x="527" 
d="M178 0h-103v552h103v-552zM178 655h-103v111h103v-111zM452 552v-616q0 -43 -7 -73t-23 -49t-43 -28t-66 -9q-9 0 -22 0.5t-26.5 1.5t-26.5 3t-23 5v85q19 -3 38 -4.5t42 -1.5q35 0 44.5 16.5t9.5 57.5v612h103zM452 655h-103v111h103v-111z" />
    <glyph glyph-name="Jcircumflex" unicode="&#x134;" horiz-adv-x="406" 
d="M330 750v-561q0 -51 -10 -88t-33.5 -62t-63 -37t-97.5 -12q-28 0 -62 5t-54 13v94q32 -10 61.5 -13t52.5 -3q51 0 75.5 23.5t24.5 85.5v555h106zM231 954h89l100 -148h-82l-63 80l-64 -80h-80z" />
    <glyph glyph-name="jcircumflex" unicode="&#x135;" horiz-adv-x="272" 
d="M197 552v-616q0 -43 -7 -73t-23 -49t-43 -28t-66 -9q-9 0 -22 0.5t-26.5 1.5t-26.5 3t-23 5v85q19 -3 38 -4.5t42 -1.5q35 0 44.5 16.5t9.5 57.5v612h103zM103 754h89l100 -148h-82l-63 80l-64 -80h-80z" />
    <glyph glyph-name="uni0136" unicode="&#x136;" horiz-adv-x="675" 
d="M359 382l296 -382h-128l-252 331h-89v-331h-106v750h106v-325h94l226 325h120zM301 -56h116l-64 -177h-91z" />
    <glyph glyph-name="uni0137" unicode="&#x137;" horiz-adv-x="543" 
d="M177 774v-427h69l171 205h117l-214 -251l218 -301h-122l-181 257h-58v-257h-102v744zM242 -56h116l-64 -177h-91z" />
    <glyph glyph-name="kgreenlandic" unicode="&#x138;" horiz-adv-x="540" 
d="M177 552v-225h69l170 225h118l-213 -265l214 -287h-119l-170 237h-69v-237h-102v552h102z" />
    <glyph glyph-name="Lacute" unicode="&#x139;" horiz-adv-x="583" 
d="M186 750v-652h367v-98h-473v750h106zM174 940h130l-113 -134h-105z" />
    <glyph glyph-name="lacute" unicode="&#x13a;" horiz-adv-x="253" 
d="M178 0h-103v744l103 30v-774zM161 940h130l-113 -134h-105z" />
    <glyph glyph-name="uni013B" unicode="&#x13b;" horiz-adv-x="583" 
d="M186 750v-652h367v-98h-473v750h106zM276 -56h116l-64 -177h-91z" />
    <glyph glyph-name="uni013C" unicode="&#x13c;" horiz-adv-x="253" 
d="M178 0h-103v744l103 30v-774zM68 -56h116l-64 -177h-91z" />
    <glyph glyph-name="Lcaron" unicode="&#x13d;" horiz-adv-x="583" 
d="M372 750l-32 -177h-78l9 177h101zM186 750v-652h367v-98h-473v750h106z" />
    <glyph glyph-name="lcaron" unicode="&#x13e;" horiz-adv-x="301" 
d="M341 761l-32 -167h-78l9 167h101zM178 0h-103v744l103 30v-774z" />
    <glyph glyph-name="Ldot" unicode="&#x13f;" horiz-adv-x="583" 
d="M405 470h98v-106h-98v106zM186 750v-652h367v-98h-473v750h106z" />
    <glyph glyph-name="ldot" unicode="&#x140;" horiz-adv-x="361" 
d="M259 450h98v-106h-98v106zM178 0h-103v744l103 30v-774z" />
    <glyph glyph-name="Lslash" unicode="&#x141;" horiz-adv-x="608" 
d="M211 750v-330l229 105v-88l-229 -105v-234h367v-98h-473v283l-95 -43v88l95 43v379h106z" />
    <glyph glyph-name="lslash" unicode="&#x142;" horiz-adv-x="317" 
d="M210 0h-103v321l-102 -65v94l102 65v329l103 30v-293l102 66v-94l-102 -66v-387z" />
    <glyph glyph-name="Nacute" unicode="&#x143;" horiz-adv-x="722" 
d="M642 0h-118l-293 498q-14 23 -26.5 51t-22.5 57v-606h-102v750h118l294 -498q15 -26 27.5 -52t20.5 -51v601h102v-750zM401 940h130l-113 -134h-105z" />
    <glyph glyph-name="nacute" unicode="&#x144;" horiz-adv-x="602" 
d="M530 0h-103v373q0 49 -14.5 75t-65.5 26q-37 0 -82 -12.5t-87 -38.5v-423h-103v552h92l10 -43q42 24 92 39.5t92 15.5q93 0 131 -41.5t38 -117.5v-405zM349 740h130l-113 -134h-105z" />
    <glyph glyph-name="uni0145" unicode="&#x145;" horiz-adv-x="722" 
d="M642 0h-118l-293 498q-14 23 -26.5 51t-22.5 57v-606h-102v750h118l294 -498q15 -26 27.5 -52t20.5 -51v601h102v-750zM323 -56h116l-64 -177h-91z" />
    <glyph glyph-name="uni0146" unicode="&#x146;" horiz-adv-x="602" 
d="M530 0h-103v373q0 49 -14.5 75t-65.5 26q-37 0 -82 -12.5t-87 -38.5v-423h-103v552h92l10 -43q42 24 92 39.5t92 15.5q93 0 131 -41.5t38 -117.5v-405zM253 -56h116l-64 -177h-91z" />
    <glyph glyph-name="Ncaron" unicode="&#x147;" horiz-adv-x="722" 
d="M425 796h-89l-100 148h82l63 -80l64 80h80zM642 0h-118l-293 498q-14 23 -26.5 51t-22.5 57v-606h-102v750h118l294 -498q15 -26 27.5 -52t20.5 -51v601h102v-750z" />
    <glyph glyph-name="ncaron" unicode="&#x148;" horiz-adv-x="602" 
d="M364 596h-89l-100 148h82l63 -80l64 80h80zM530 0h-103v373q0 49 -14.5 75t-65.5 26q-37 0 -82 -12.5t-87 -38.5v-423h-103v552h92l10 -43q42 24 92 39.5t92 15.5q93 0 131 -41.5t38 -117.5v-405z" />
    <glyph glyph-name="napostrophe" unicode="&#x149;" horiz-adv-x="602" 
d="M73 700l-43 -194h-73l19 194h97zM530 0h-103v373q0 49 -14.5 75t-65.5 26q-37 0 -82 -12.5t-87 -38.5v-423h-103v552h92l10 -43q42 24 92 39.5t92 15.5q93 0 131 -41.5t38 -117.5v-405z" />
    <glyph glyph-name="Eng" unicode="&#x14a;" horiz-adv-x="722" 
d="M642 750v-774q0 -51 -5 -88t-22.5 -62t-51 -37t-90.5 -12q-28 0 -53.5 4t-45.5 12v94q30 -9 52 -11.5t45 -2.5q22 0 35.5 5t21 17t10 31t2.5 47l-309 525q-14 23 -26.5 51t-22.5 57v-606h-102v750h118l294 -498q15 -26 27.5 -52t20.5 -51v601h102z" />
    <glyph glyph-name="eng" unicode="&#x14b;" 
d="M530 -64q0 -43 -7 -73t-23 -49t-43 -28t-66 -9q-9 0 -22 0.5t-26.5 1.5t-26.5 3t-23 5v85q19 -3 38 -4.5t42 -1.5q35 0 44.5 16.5t9.5 57.5v433q0 49 -14.5 75t-65.5 26q-37 0 -82 -12.5t-87 -38.5v-423h-103v552h92l10 -43q42 24 92 39.5t92 15.5q93 0 131 -41.5
t38 -117.5v-469z" />
    <glyph glyph-name="Omacron" unicode="&#x14c;" horiz-adv-x="752" 
d="M702 323q0 -163 -84 -249t-242 -86t-242 86t-84 249v104q0 162 84 248.5t242 86.5t242 -86.5t84 -248.5v-104zM595 421q0 67 -15.5 113.5t-44 75.5t-69 42.5t-90.5 13.5t-90.5 -13.5t-69 -42.5t-44 -75.5t-15.5 -113.5v-92q0 -67 15.5 -113.5t44 -76t69 -42.5t90.5 -13
t90.5 13t69 42.5t44 76t15.5 113.5v92zM230 920h292v-80h-292v80z" />
    <glyph glyph-name="omacron" unicode="&#x14d;" horiz-adv-x="599" 
d="M544 242q0 -121 -63.5 -186.5t-181.5 -65.5q-117 0 -180.5 65.5t-63.5 186.5v70q0 121 63.5 186.5t180.5 65.5q118 0 181.5 -65.5t63.5 -186.5v-70zM440 312q0 89 -37.5 127t-103.5 38q-65 0 -102.5 -38t-37.5 -127v-70q0 -89 37.5 -127t102.5 -38q66 0 103.5 38
t37.5 127v70zM154 720h292v-80h-292v80z" />
    <glyph glyph-name="Obreve" unicode="&#x14e;" horiz-adv-x="752" 
d="M376 806q-32 0 -57 10.5t-43 29.5t-28 44t-12 54h73q5 -29 20 -46.5t47 -17.5q33 0 47.5 17.5t19.5 46.5h73q-1 -29 -11 -54t-28 -44t-43.5 -29.5t-57.5 -10.5zM702 323q0 -163 -84 -249t-242 -86t-242 86t-84 249v104q0 162 84 248.5t242 86.5t242 -86.5t84 -248.5v-104
zM595 421q0 67 -15.5 113.5t-44 75.5t-69 42.5t-90.5 13.5t-90.5 -13.5t-69 -42.5t-44 -75.5t-15.5 -113.5v-92q0 -67 15.5 -113.5t44 -76t69 -42.5t90.5 -13t90.5 13t69 42.5t44 76t15.5 113.5v92z" />
    <glyph glyph-name="obreve" unicode="&#x14f;" horiz-adv-x="599" 
d="M300 606q-32 0 -57 10.5t-43 29.5t-28 44t-12 54h73q5 -29 20 -46.5t47 -17.5q33 0 47.5 17.5t19.5 46.5h73q-1 -29 -11 -54t-28 -44t-43.5 -29.5t-57.5 -10.5zM544 242q0 -121 -63.5 -186.5t-181.5 -65.5q-117 0 -180.5 65.5t-63.5 186.5v70q0 121 63.5 186.5
t180.5 65.5q118 0 181.5 -65.5t63.5 -186.5v-70zM440 312q0 89 -37.5 127t-103.5 38q-65 0 -102.5 -38t-37.5 -127v-70q0 -89 37.5 -127t102.5 -38q66 0 103.5 38t37.5 127v70z" />
    <glyph glyph-name="Ohungarumlaut" unicode="&#x150;" horiz-adv-x="752" 
d="M464 940h97l-71 -134h-75zM302 940h98l-71 -134h-77zM702 323q0 -163 -84 -249t-242 -86t-242 86t-84 249v104q0 162 84 248.5t242 86.5t242 -86.5t84 -248.5v-104zM595 421q0 67 -15.5 113.5t-44 75.5t-69 42.5t-90.5 13.5t-90.5 -13.5t-69 -42.5t-44 -75.5
t-15.5 -113.5v-92q0 -67 15.5 -113.5t44 -76t69 -42.5t90.5 -13t90.5 13t69 42.5t44 76t15.5 113.5v92z" />
    <glyph glyph-name="ohungarumlaut" unicode="&#x151;" horiz-adv-x="599" 
d="M391 740h97l-71 -134h-75zM229 740h98l-71 -134h-77zM544 242q0 -121 -63.5 -186.5t-181.5 -65.5q-117 0 -180.5 65.5t-63.5 186.5v70q0 121 63.5 186.5t180.5 65.5q118 0 181.5 -65.5t63.5 -186.5v-70zM440 312q0 89 -37.5 127t-103.5 38q-65 0 -102.5 -38t-37.5 -127
v-70q0 -89 37.5 -127t102.5 -38q66 0 103.5 38t37.5 127v70z" />
    <glyph glyph-name="OE" unicode="&#x152;" horiz-adv-x="1027" 
d="M973 750v-95h-371v-221h338v-93h-338v-246h385v-95h-585q-94 0 -161 22t-109.5 65.5t-62 107.5t-19.5 148v59q0 175 83.5 261.5t259.5 86.5h580zM394 655q-71 0 -117 -18t-72.5 -50t-37 -76t-10.5 -96v-79q0 -50 10 -94t36 -76.5t72.5 -51.5t118.5 -19h102v560h-102z" />
    <glyph glyph-name="oe" unicode="&#x153;" horiz-adv-x="961" 
d="M913 246h-371v-22q0 -33 6.5 -60.5t24 -46.5t49 -29.5t82.5 -10.5q32 0 74.5 5t82.5 19v-83q-35 -15 -80 -21.5t-81 -6.5q-81 0 -132 20t-80 62q-29 -40 -76 -61t-113 -21q-117 0 -180.5 65.5t-63.5 186.5v70q0 121 63.5 186.5t180.5 65.5q68 0 115.5 -22.5t76.5 -64.5
q29 45 76 66t108 21q55 0 99.5 -13.5t75 -45t47 -84t16.5 -129.5v-46zM440 312q0 89 -37.5 127t-103.5 38q-65 0 -102.5 -38t-37.5 -127v-70q0 -89 37.5 -127t102.5 -38q66 0 103.5 38t37.5 127v70zM812 325v7q0 31 -7 57.5t-23 46.5t-42 31.5t-64 11.5q-36 0 -61.5 -11.5
t-41.5 -31.5t-23.5 -46.5t-7.5 -57.5v-7h270z" />
    <glyph glyph-name="Racute" unicode="&#x154;" horiz-adv-x="674" 
d="M80 750h277q60 0 107 -7.5t80 -29.5t50.5 -62t17.5 -104v-38q0 -84 -30.5 -128t-94.5 -61l157 -320h-111l-150 306h-197v-306h-106v750zM186 657v-260h148q51 0 84 5t52.5 17t27.5 32.5t8 52.5v54q0 53 -32.5 76t-114.5 23h-173zM359 940h130l-113 -134h-105z" />
    <glyph glyph-name="racute" unicode="&#x155;" horiz-adv-x="381" 
d="M361 564v-101q-47 -3 -95.5 -17t-87.5 -44v-402h-103v552h92l10 -56q30 23 75.5 44t108.5 24zM236 740h130l-113 -134h-105z" />
    <glyph glyph-name="uni0156" unicode="&#x156;" horiz-adv-x="674" 
d="M80 750h277q60 0 107 -7.5t80 -29.5t50.5 -62t17.5 -104v-38q0 -84 -30.5 -128t-94.5 -61l157 -320h-111l-150 306h-197v-306h-106v750zM186 657v-260h148q51 0 84 5t52.5 17t27.5 32.5t8 52.5v54q0 53 -32.5 76t-114.5 23h-173zM316 -56h116l-64 -177h-91z" />
    <glyph glyph-name="uni0157" unicode="&#x157;" horiz-adv-x="381" 
d="M361 564v-101q-47 -3 -95.5 -17t-87.5 -44v-402h-103v552h92l10 -56q30 23 75.5 44t108.5 24zM68 -56h116l-64 -177h-91z" />
    <glyph glyph-name="Rcaron" unicode="&#x158;" horiz-adv-x="674" 
d="M391 796h-89l-100 148h82l63 -80l64 80h80zM80 750h277q60 0 107 -7.5t80 -29.5t50.5 -62t17.5 -104v-38q0 -84 -30.5 -128t-94.5 -61l157 -320h-111l-150 306h-197v-306h-106v750zM186 657v-260h148q51 0 84 5t52.5 17t27.5 32.5t8 52.5v54q0 53 -32.5 76t-114.5 23
h-173z" />
    <glyph glyph-name="rcaron" unicode="&#x159;" horiz-adv-x="381" 
d="M264 596h-89l-100 148h82l63 -80l64 80h80zM361 564v-101q-47 -3 -95.5 -17t-87.5 -44v-402h-103v552h92l10 -56q30 23 75.5 44t108.5 24z" />
    <glyph glyph-name="Sacute" unicode="&#x15a;" horiz-adv-x="603" 
d="M563 206q0 -46 -12.5 -85.5t-42.5 -68.5t-81 -45.5t-128 -16.5q-63 0 -123 8t-126 31v96q75 -26 138.5 -33.5t106.5 -7.5q49 0 80 8t49 23t25 36.5t7 47.5q0 25 -4 43.5t-17.5 32.5t-38.5 25.5t-67 22.5l-92 23q-47 12 -81.5 28.5t-57 41t-33.5 58t-11 79.5q0 51 14 90
t44.5 65t79.5 39t119 13q58 0 113.5 -6t90.5 -19v-88q-42 11 -91.5 15.5t-91.5 4.5q-54 0 -87.5 -6.5t-52 -20t-25.5 -35t-7 -52.5q0 -25 5 -42.5t18 -30.5t33.5 -22t52.5 -17l91 -23q68 -17 108.5 -37.5t61.5 -46t27 -57t6 -71.5zM331 940h130l-113 -134h-105z" />
    <glyph glyph-name="sacute" unicode="&#x15b;" horiz-adv-x="484" 
d="M446 153q0 -35 -9.5 -64.5t-33 -51.5t-62.5 -34.5t-98 -12.5q-41 0 -93.5 7.5t-97.5 25.5v87q55 -21 104 -27.5t81 -6.5q62 0 85 18t23 54q0 18 -1.5 31t-10.5 22t-27 16.5t-51 15.5l-41 10q-45 11 -75.5 24.5t-49 32.5t-26.5 44t-8 58q0 76 46.5 119t154.5 43
q45 0 83.5 -5t66.5 -15v-84q-30 9 -67.5 14t-67.5 5q-34 0 -56 -3.5t-35.5 -12t-19 -22t-5.5 -33.5q0 -19 3.5 -31.5t13 -20.5t26.5 -14.5t44 -13.5l41 -10q51 -12 83 -26t49.5 -33t24 -45t6.5 -61zM258 740h130l-113 -134h-105z" />
    <glyph glyph-name="Scircumflex" unicode="&#x15c;" horiz-adv-x="603" 
d="M563 206q0 -46 -12.5 -85.5t-42.5 -68.5t-81 -45.5t-128 -16.5q-63 0 -123 8t-126 31v96q75 -26 138.5 -33.5t106.5 -7.5q49 0 80 8t49 23t25 36.5t7 47.5q0 25 -4 43.5t-17.5 32.5t-38.5 25.5t-67 22.5l-92 23q-47 12 -81.5 28.5t-57 41t-33.5 58t-11 79.5q0 51 14 90
t44.5 65t79.5 39t119 13q58 0 113.5 -6t90.5 -19v-88q-42 11 -91.5 15.5t-91.5 4.5q-54 0 -87.5 -6.5t-52 -20t-25.5 -35t-7 -52.5q0 -25 5 -42.5t18 -30.5t33.5 -22t52.5 -17l91 -23q68 -17 108.5 -37.5t61.5 -46t27 -57t6 -71.5zM270 954h89l100 -148h-82l-63 80l-64 -80
h-80z" />
    <glyph glyph-name="scircumflex" unicode="&#x15d;" horiz-adv-x="484" 
d="M446 153q0 -35 -9.5 -64.5t-33 -51.5t-62.5 -34.5t-98 -12.5q-41 0 -93.5 7.5t-97.5 25.5v87q55 -21 104 -27.5t81 -6.5q62 0 85 18t23 54q0 18 -1.5 31t-10.5 22t-27 16.5t-51 15.5l-41 10q-45 11 -75.5 24.5t-49 32.5t-26.5 44t-8 58q0 76 46.5 119t154.5 43
q45 0 83.5 -5t66.5 -15v-84q-30 9 -67.5 14t-67.5 5q-34 0 -56 -3.5t-35.5 -12t-19 -22t-5.5 -33.5q0 -19 3.5 -31.5t13 -20.5t26.5 -14.5t44 -13.5l41 -10q51 -12 83 -26t49.5 -33t24 -45t6.5 -61zM198 754h89l100 -148h-82l-63 80l-64 -80h-80z" />
    <glyph glyph-name="Scedilla" unicode="&#x15e;" horiz-adv-x="603" 
d="M283 -263q-40 0 -81 7v70q15 -2 32 -3t36 -1q40 0 54.5 12t14.5 26v8q0 20 -17 30t-63 10h-19v96q-48 3 -93.5 11.5t-96.5 25.5v96q75 -26 138.5 -33.5t106.5 -7.5q49 0 80 8t49 23t25 36.5t7 47.5q0 25 -4 43.5t-17.5 32.5t-38.5 25.5t-67 22.5l-92 23
q-47 12 -81.5 28.5t-57 41t-33.5 58t-11 79.5q0 51 14 90t44.5 65t79.5 39t119 13q58 0 113.5 -6t90.5 -19v-88q-42 11 -91.5 15.5t-91.5 4.5q-54 0 -87.5 -6.5t-52 -20t-25.5 -35t-7 -52.5q0 -25 5 -42.5t18 -30.5t33.5 -22t52.5 -17l91 -23q68 -17 108.5 -37.5t61.5 -46
t27 -57t6 -71.5q0 -44 -11.5 -82t-38.5 -66.5t-72 -46t-113 -20.5v-46q33 -3 54.5 -10t34 -19t17.5 -28t5 -36v-8q0 -31 -12.5 -51.5t-33.5 -33t-49.5 -17.5t-60.5 -5z" />
    <glyph glyph-name="scedilla" unicode="&#x15f;" horiz-adv-x="484" 
d="M224 -263q-40 0 -81 7v70q15 -2 32 -3t36 -1q40 0 54.5 12t14.5 26v8q0 20 -17 30t-63 10h-19v98q-32 3 -66 10t-63 19v87q55 -21 104 -27.5t81 -6.5q62 0 85 18t23 54q0 18 -1.5 31t-10.5 22t-27 16.5t-51 15.5l-41 10q-45 11 -75.5 24.5t-49 32.5t-26.5 44t-8 58
q0 76 46.5 119t154.5 43q45 0 83.5 -5t66.5 -15v-84q-30 9 -67.5 14t-67.5 5q-34 0 -56 -3.5t-35.5 -12t-19 -22t-5.5 -33.5q0 -19 3.5 -31.5t13 -20.5t26.5 -14.5t44 -13.5l41 -10q51 -12 83 -26t49.5 -33t24 -45t6.5 -61q0 -33 -8.5 -61t-28.5 -50t-54.5 -35t-85.5 -16
v-46q33 -3 54.5 -10t34 -19t17.5 -28t5 -36v-8q0 -31 -12.5 -51.5t-33.5 -33t-49.5 -17.5t-60.5 -5z" />
    <glyph glyph-name="Scaron" unicode="&#x160;" horiz-adv-x="603" 
d="M349 796h-89l-100 148h82l63 -80l64 80h80zM563 206q0 -46 -12.5 -85.5t-42.5 -68.5t-81 -45.5t-128 -16.5q-63 0 -123 8t-126 31v96q75 -26 138.5 -33.5t106.5 -7.5q49 0 80 8t49 23t25 36.5t7 47.5q0 25 -4 43.5t-17.5 32.5t-38.5 25.5t-67 22.5l-92 23
q-47 12 -81.5 28.5t-57 41t-33.5 58t-11 79.5q0 51 14 90t44.5 65t79.5 39t119 13q58 0 113.5 -6t90.5 -19v-88q-42 11 -91.5 15.5t-91.5 4.5q-54 0 -87.5 -6.5t-52 -20t-25.5 -35t-7 -52.5q0 -25 5 -42.5t18 -30.5t33.5 -22t52.5 -17l91 -23q68 -17 108.5 -37.5t61.5 -46
t27 -57t6 -71.5z" />
    <glyph glyph-name="scaron" unicode="&#x161;" horiz-adv-x="484" 
d="M289 596h-89l-100 148h82l63 -80l64 80h80zM446 153q0 -35 -9.5 -64.5t-33 -51.5t-62.5 -34.5t-98 -12.5q-41 0 -93.5 7.5t-97.5 25.5v87q55 -21 104 -27.5t81 -6.5q62 0 85 18t23 54q0 18 -1.5 31t-10.5 22t-27 16.5t-51 15.5l-41 10q-45 11 -75.5 24.5t-49 32.5
t-26.5 44t-8 58q0 76 46.5 119t154.5 43q45 0 83.5 -5t66.5 -15v-84q-30 9 -67.5 14t-67.5 5q-34 0 -56 -3.5t-35.5 -12t-19 -22t-5.5 -33.5q0 -19 3.5 -31.5t13 -20.5t26.5 -14.5t44 -13.5l41 -10q51 -12 83 -26t49.5 -33t24 -45t6.5 -61z" />
    <glyph glyph-name="uni0162" unicode="&#x162;" horiz-adv-x="622" 
d="M311 -263q-40 0 -81 7v70q15 -2 32 -3t36 -1q40 0 54.5 12t14.5 26v8q0 20 -17 30t-63 10h-19v104h-10v654h-238v96h582v-96h-238v-654h-8v-55q33 -3 54.5 -10t34 -19t17.5 -28t5 -36v-8q0 -31 -12.5 -51.5t-33.5 -33t-49.5 -17.5t-60.5 -5z" />
    <glyph glyph-name="uni0163" unicode="&#x163;" horiz-adv-x="403" 
d="M194 -263q-40 0 -81 7v70q15 -2 32 -3t36 -1q40 0 54.5 12t14.5 26v8q0 20 -17 30t-63 10h-19v119q-40 31 -40 108v342h-91v87h91v114l103 30v-144h147v-87h-147v-311q0 -39 11 -56.5t43 -17.5q24 0 48.5 4t44.5 13v-83q-20 -13 -52 -18.5t-63 -5.5h-7v-45
q33 -3 54.5 -10t34 -19t17.5 -28t5 -36v-8q0 -31 -12.5 -51.5t-33.5 -33t-49.5 -17.5t-60.5 -5z" />
    <glyph glyph-name="Tcaron" unicode="&#x164;" horiz-adv-x="622" 
d="M355 796h-89l-100 148h82l63 -80l64 80h80zM20 654v96h582v-96h-238v-654h-106v654h-238z" />
    <glyph glyph-name="tcaron" unicode="&#x165;" horiz-adv-x="403" 
d="M392 761l-32 -167h-78l9 167h101zM361 465h-147v-311q0 -39 11 -56.5t43 -17.5q24 0 48.5 4t44.5 13v-83q-20 -13 -52 -18.5t-63 -5.5q-72 0 -103.5 33.5t-31.5 99.5v342h-91v87h91v114l103 30v-144h147v-87z" />
    <glyph glyph-name="Tbar" unicode="&#x166;" horiz-adv-x="622" 
d="M78 430h180v224h-238v96h582v-96h-238v-224h180v-81h-180v-349h-106v349h-180v81z" />
    <glyph glyph-name="tbar" unicode="&#x167;" horiz-adv-x="403" 
d="M28 353h83v112h-91v87h91v114l103 30v-144h147v-87h-147v-112h155v-81h-155v-118q0 -39 11 -56.5t43 -17.5q24 0 48.5 4t44.5 13v-83q-20 -13 -52 -18.5t-63 -5.5q-72 0 -103.5 33.5t-31.5 99.5v149h-83v81z" />
    <glyph glyph-name="Utilde" unicode="&#x168;" horiz-adv-x="739" 
d="M177 750v-466q0 -56 11.5 -94t34.5 -61t59 -32.5t86 -9.5q51 0 88 9.5t60.5 32.5t34.5 61t11 94v466h107v-472q0 -149 -72.5 -219.5t-228.5 -70.5q-155 0 -226.5 70t-71.5 220v472h107zM433 808q-24 0 -39.5 8.5t-27.5 19t-22.5 19t-23.5 8.5q-17 0 -26 -17.5t-12 -35.5
h-75q3 22 9.5 45.5t18.5 42t30.5 30.5t45.5 12q25 0 42 -8.5t29.5 -19t23 -19t22.5 -8.5q19 0 26 18.5t9 36.5h75q-2 -21 -8 -44t-18 -42.5t-31 -32.5t-48 -13z" />
    <glyph glyph-name="utilde" unicode="&#x169;" horiz-adv-x="597" 
d="M72 552h103v-372q0 -24 2.5 -43t11 -32t24 -19.5t41.5 -6.5q37 0 80 12.5t85 38.5v422h103v-552h-92l-10 45q-42 -24 -90 -39.5t-90 -15.5q-93 0 -130.5 41t-37.5 118v403zM360 608q-24 0 -39.5 8.5t-27.5 19t-22.5 19t-23.5 8.5q-17 0 -26 -17.5t-12 -35.5h-75
q3 22 9.5 45.5t18.5 42t30.5 30.5t45.5 12q25 0 42 -8.5t29.5 -19t23 -19t22.5 -8.5q19 0 26 18.5t9 36.5h75q-2 -21 -8 -44t-18 -42.5t-31 -32.5t-48 -13z" />
    <glyph glyph-name="Umacron" unicode="&#x16a;" horiz-adv-x="739" 
d="M177 750v-466q0 -56 11.5 -94t34.5 -61t59 -32.5t86 -9.5q51 0 88 9.5t60.5 32.5t34.5 61t11 94v466h107v-472q0 -149 -72.5 -219.5t-228.5 -70.5q-155 0 -226.5 70t-71.5 220v472h107zM223 920h292v-80h-292v80z" />
    <glyph glyph-name="umacron" unicode="&#x16b;" horiz-adv-x="597" 
d="M72 552h103v-372q0 -24 2.5 -43t11 -32t24 -19.5t41.5 -6.5q37 0 80 12.5t85 38.5v422h103v-552h-92l-10 45q-42 -24 -90 -39.5t-90 -15.5q-93 0 -130.5 41t-37.5 118v403zM154 720h292v-80h-292v80z" />
    <glyph glyph-name="Ubreve" unicode="&#x16c;" horiz-adv-x="739" 
d="M369 806q-32 0 -57 10.5t-43 29.5t-28 44t-12 54h73q5 -29 20 -46.5t47 -17.5q33 0 47.5 17.5t19.5 46.5h73q-1 -29 -11 -54t-28 -44t-43.5 -29.5t-57.5 -10.5zM177 750v-466q0 -56 11.5 -94t34.5 -61t59 -32.5t86 -9.5q51 0 88 9.5t60.5 32.5t34.5 61t11 94v466h107
v-472q0 -149 -72.5 -219.5t-228.5 -70.5q-155 0 -226.5 70t-71.5 220v472h107z" />
    <glyph glyph-name="ubreve" unicode="&#x16d;" horiz-adv-x="597" 
d="M300 606q-32 0 -57 10.5t-43 29.5t-28 44t-12 54h73q5 -29 20 -46.5t47 -17.5q33 0 47.5 17.5t19.5 46.5h73q-1 -29 -11 -54t-28 -44t-43.5 -29.5t-57.5 -10.5zM72 552h103v-372q0 -24 2.5 -43t11 -32t24 -19.5t41.5 -6.5q37 0 80 12.5t85 38.5v422h103v-552h-92l-10 45
q-42 -24 -90 -39.5t-90 -15.5q-93 0 -130.5 41t-37.5 118v403z" />
    <glyph glyph-name="Uring" unicode="&#x16e;" horiz-adv-x="739" 
d="M369 844q23 0 36.5 13.5t13.5 36.5t-13.5 37t-36.5 14q-22 0 -35.5 -14t-13.5 -37t13.5 -36.5t35.5 -13.5zM369 789q-23 0 -43 8.5t-34.5 23t-22.5 33.5t-8 40t8 40t22.5 33.5t34.5 22.5t43 8q24 0 44 -8t34.5 -22.5t22.5 -33.5t8 -40t-8 -40t-22.5 -33.5t-34.5 -23
t-44 -8.5zM177 750v-466q0 -56 11.5 -94t34.5 -61t59 -32.5t86 -9.5q51 0 88 9.5t60.5 32.5t34.5 61t11 94v466h107v-472q0 -149 -72.5 -219.5t-228.5 -70.5q-155 0 -226.5 70t-71.5 220v472h107z" />
    <glyph glyph-name="uring" unicode="&#x16f;" horiz-adv-x="597" 
d="M299 644q23 0 36.5 13.5t13.5 36.5t-13.5 37t-36.5 14q-22 0 -35.5 -14t-13.5 -37t13.5 -36.5t35.5 -13.5zM299 589q-23 0 -43 8.5t-34.5 23t-22.5 33.5t-8 40t8 40t22.5 33.5t34.5 22.5t43 8q24 0 44 -8t34.5 -22.5t22.5 -33.5t8 -40t-8 -40t-22.5 -33.5t-34.5 -23
t-44 -8.5zM72 552h103v-372q0 -24 2.5 -43t11 -32t24 -19.5t41.5 -6.5q37 0 80 12.5t85 38.5v422h103v-552h-92l-10 45q-42 -24 -90 -39.5t-90 -15.5q-93 0 -130.5 41t-37.5 118v403z" />
    <glyph glyph-name="Uhungarumlaut" unicode="&#x170;" horiz-adv-x="739" 
d="M457 940h97l-71 -134h-75zM295 940h98l-71 -134h-77zM177 750v-466q0 -56 11.5 -94t34.5 -61t59 -32.5t86 -9.5q51 0 88 9.5t60.5 32.5t34.5 61t11 94v466h107v-472q0 -149 -72.5 -219.5t-228.5 -70.5q-155 0 -226.5 70t-71.5 220v472h107z" />
    <glyph glyph-name="uhungarumlaut" unicode="&#x171;" horiz-adv-x="597" 
d="M381 740h97l-71 -134h-75zM219 740h98l-71 -134h-77zM72 552h103v-372q0 -24 2.5 -43t11 -32t24 -19.5t41.5 -6.5q37 0 80 12.5t85 38.5v422h103v-552h-92l-10 45q-42 -24 -90 -39.5t-90 -15.5q-93 0 -130.5 41t-37.5 118v403z" />
    <glyph glyph-name="Uogonek" unicode="&#x172;" horiz-adv-x="739" 
d="M177 750v-466q0 -56 11.5 -94t34.5 -61t59 -32.5t86 -9.5q51 0 88 9.5t60.5 32.5t34.5 61t11 94v466h107v-472q0 -119 -45 -187t-141 -91h2q-41 -21 -65.5 -50t-24.5 -52v-8q0 -20 15 -28t42 -8q15 0 29.5 2t25.5 5v-73q-13 -4 -33 -7.5t-48 -3.5q-65 0 -100.5 27.5
t-35.5 69.5v9q0 32 23 60.5t52 44.5q-154 1 -224.5 71t-70.5 219v472h107z" />
    <glyph glyph-name="uogonek" unicode="&#x173;" horiz-adv-x="597" 
d="M463 -223q-65 0 -100.5 27.5t-35.5 69.5v9q0 19 9.5 38t24.5 34.5t33.5 27.5t35.5 17h92q-41 -21 -65.5 -50t-24.5 -52v-8q0 -20 15 -28t42 -8q15 0 29.5 2t25.5 5v-73q-13 -4 -33 -7.5t-48 -3.5zM72 552h103v-372q0 -24 2.5 -43t11 -32t24 -19.5t41.5 -6.5q37 0 80 12.5
t85 38.5v422h103v-552h-92l-10 45q-42 -24 -90 -39.5t-90 -15.5q-93 0 -130.5 41t-37.5 118v403z" />
    <glyph glyph-name="Wcircumflex" unicode="&#x174;" horiz-adv-x="957" 
d="M512 440q-8 31 -17.5 78t-16.5 94q-8 -48 -18.5 -94.5t-18.5 -77.5l-117 -440h-108l-204 750h116l113 -473q8 -31 15.5 -71t13.5 -82q8 42 18 82t18 71l122 473h98l131 -473q8 -30 16 -69.5t13 -79.5q7 40 15 79.5t16 69.5l121 473h107l-211 -750h-101zM434 954h89
l100 -148h-82l-63 80l-64 -80h-80z" />
    <glyph glyph-name="wcircumflex" unicode="&#x175;" horiz-adv-x="800" 
d="M118 552l102 -339q5 -17 11 -43t10 -49h1q4 24 9.5 49.5t10.5 42.5l96 339h90l96 -339q5 -15 11 -42t9 -50h1q4 23 10.5 50t11.5 42l103 339h94l-175 -552h-95l-92 325q-3 10 -6 25t-5.5 31t-4.5 30.5t-3 24.5h-1q-1 -10 -3 -24.5t-5 -30.5t-6 -31t-6 -25l-95 -325h-94
l-177 552h102zM358 754h89l100 -148h-82l-63 80l-64 -80h-80z" />
    <glyph glyph-name="Ycircumflex" unicode="&#x176;" horiz-adv-x="604" 
d="M359 316v-316h-106v314l-247 436h117l114 -222q16 -31 36 -69.5t33 -70.5q5 16 13.5 34.5t17.5 37.5t18.5 36.5t16.5 31.5l113 222h113zM262 954h89l100 -148h-82l-63 80l-64 -80h-80z" />
    <glyph glyph-name="ycircumflex" unicode="&#x177;" horiz-adv-x="540" 
d="M530 552l-286 -768h-103l79 217l-210 551h112l120 -346q7 -19 16 -49t15 -65h1q6 31 14.5 63.5t15.5 50.5l122 346h104zM229 754h89l100 -148h-82l-63 80l-64 -80h-80z" />
    <glyph glyph-name="Ydieresis" unicode="&#x178;" horiz-adv-x="604" 
d="M359 316v-316h-106v314l-247 436h117l114 -222q16 -31 36 -69.5t33 -70.5q5 16 13.5 34.5t17.5 37.5t18.5 36.5t16.5 31.5l113 222h113zM167 918h96v-106h-96v106zM350 918h96v-106h-96v106z" />
    <glyph glyph-name="Zacute" unicode="&#x179;" horiz-adv-x="608" 
d="M194 158q-11 -15 -25.5 -34t-27.5 -35h443v-89h-564v80l378 512q11 16 25.5 34.5t27.5 34.5h-416v89h537v-80zM317 940h130l-113 -134h-105z" />
    <glyph glyph-name="zacute" unicode="&#x17a;" horiz-adv-x="492" 
d="M453 473l-243 -317q-11 -15 -25.5 -32.5t-31.5 -37.5h314v-86h-432v79l243 318l54 69h-286v86h407v-79zM268 740h130l-113 -134h-105z" />
    <glyph glyph-name="Zdotaccent" unicode="&#x17b;" horiz-adv-x="608" 
d="M255 918h98v-106h-98v106zM194 158q-11 -15 -25.5 -34t-27.5 -35h443v-89h-564v80l378 512q11 16 25.5 34.5t27.5 34.5h-416v89h537v-80z" />
    <glyph glyph-name="zdotaccent" unicode="&#x17c;" horiz-adv-x="492" 
d="M453 473l-243 -317q-11 -15 -25.5 -32.5t-31.5 -37.5h314v-86h-432v79l243 318l54 69h-286v86h407v-79zM197 718h98v-106h-98v106z" />
    <glyph glyph-name="Zcaron" unicode="&#x17d;" horiz-adv-x="608" 
d="M354 796h-89l-100 148h82l63 -80l64 80h80zM194 158q-11 -15 -25.5 -34t-27.5 -35h443v-89h-564v80l378 512q11 16 25.5 34.5t27.5 34.5h-416v89h537v-80z" />
    <glyph glyph-name="zcaron" unicode="&#x17e;" horiz-adv-x="492" 
d="M453 473l-243 -317q-11 -15 -25.5 -32.5t-31.5 -37.5h314v-86h-432v79l243 318l54 69h-286v86h407v-79zM296 596h-89l-100 148h82l63 -80l64 80h80z" />
    <glyph glyph-name="longs" unicode="&#x17f;" horiz-adv-x="344" 
d="M178 0h-103v642q0 69 38 100.5t110 31.5q30 0 59 -4.5t44 -9.5v-78q-17 3 -35.5 5t-37.5 2q-48 0 -61.5 -16t-13.5 -55v-618z" />
    <glyph glyph-name="uni0180" unicode="&#x180;" horiz-adv-x="625" 
d="M10 679h75v65l103 30v-95h145v-81h-145v-99q33 19 83.5 36t104.5 17q49 0 85 -15.5t60 -42.5t35.5 -63t11.5 -78v-130q0 -54 -12 -97.5t-38.5 -73.5t-68.5 -46.5t-101 -16.5q-35 0 -82 11t-87 40l-6 -40h-88v598h-75v81zM188 414v-294q32 -22 71.5 -32.5t74.5 -10.5
q73 0 101.5 39.5t28.5 120.5v85q0 70 -23 105t-88 35q-45 0 -89 -15t-76 -33z" />
    <glyph glyph-name="uni0181" unicode="&#x181;" horiz-adv-x="754" 
d="M147 750h281q57 0 103 -7t78.5 -26t49.5 -53t17 -88v-38q0 -22 -4 -43.5t-14.5 -40.5t-28.5 -34.5t-47 -24.5q64 -13 93 -50t29 -91v-77q0 -54 -16 -88.5t-49.5 -54t-85 -27t-122.5 -7.5h-254v660h-26q-38 0 -51 -14.5t-13 -43.5q0 -20 2.5 -35t5.5 -26h-95
q-5 16 -7.5 36t-2.5 43q0 68 40.5 99t116.5 31zM283 347v-257h153q51 0 82.5 4.5t49 16t24 31.5t6.5 50v52q0 56 -31.5 79.5t-114.5 23.5h-169zM283 660v-229h159q28 0 51.5 3.5t41 14t27 30.5t9.5 53v41q0 28 -6.5 45t-23 26.5t-44 12.5t-68.5 3h-146z" />
    <glyph glyph-name="uni0182" unicode="&#x182;" horiz-adv-x="663" 
d="M186 347v-257h153q51 0 82.5 5t49 17t24 32.5t6.5 50.5v52q0 28 -7 47t-24 31t-45 17t-70 5h-169zM607 180q0 -54 -16 -89t-49.5 -55t-85 -28t-122.5 -8h-254v750h460v-90h-354v-229h148q145 0 209 -39.5t64 -126.5v-85z" />
    <glyph glyph-name="uni0183" unicode="&#x183;" horiz-adv-x="615" 
d="M366 522q49 0 85 -15.5t60 -42.5t35.5 -63t11.5 -78v-100q0 -54 -12 -97.5t-38.5 -73.5t-68.5 -46.5t-101 -16.5q-35 0 -82 11t-87 40l-6 -40h-88v759h443v-92h-340v-198q33 19 83.5 36t104.5 17zM178 384v-264q32 -22 71.5 -32.5t74.5 -10.5q73 0 101.5 39.5t28.5 120.5
v55q0 70 -23 105t-88 35q-45 0 -89 -15t-76 -33z" />
    <glyph glyph-name="uni0184" unicode="&#x184;" horiz-adv-x="669" 
d="M80 750h106v-250h173q71 0 119.5 -9t78 -32t42.5 -62t13 -100v-94q0 -65 -15.5 -104.5t-46 -61.5t-75 -29.5t-101.5 -7.5h-56q-60 0 -104.5 9t-74 33t-44.5 65t-15 106v537zM379 93q39 0 63.5 5.5t38.5 17t19.5 30.5t5.5 46v110q0 31 -5 52t-20.5 33t-45.5 17t-81 5h-168
v-207q0 -27 4.5 -47.5t18 -34t38.5 -20.5t66 -7h66z" />
    <glyph glyph-name="uni0185" unicode="&#x185;" horiz-adv-x="607" 
d="M366 564q49 0 85 -15.5t60 -42.5t35.5 -63t11.5 -78v-142q0 -54 -13 -97t-40.5 -73.5t-71 -46.5t-103.5 -16h-31q-44 0 -84.5 7t-71.5 24t-49.5 46t-18.5 73v604l103 30v-263q33 19 83.5 36t104.5 17zM178 426v-265q0 -46 29.5 -65t94.5 -19h22q73 0 101.5 39.5
t28.5 120.5v97q0 70 -23 105t-88 35q-45 0 -89 -15t-76 -33z" />
    <glyph glyph-name="uni0186" unicode="&#x186;" horiz-adv-x="621" 
d="M51 737q37 14 86 19.5t100 5.5q82 0 144.5 -16.5t104 -55t62.5 -102t21 -157.5v-122q0 -89 -17.5 -150t-57 -99t-103 -55t-155.5 -17q-20 0 -45 1.5t-51 5t-52 9.5t-48 15v89q51 -16 100.5 -20.5t89.5 -4.5q82 0 128.5 18t69.5 49.5t28.5 73.5t5.5 89v131q0 45 -7 86
t-31 71.5t-70 48.5t-125 18q-48 0 -98 -5.5t-80 -15.5v90z" />
    <glyph glyph-name="uni0187" unicode="&#x187;" horiz-adv-x="623" 
d="M570 647q-30 10 -80 15.5t-98 5.5q-79 0 -125 -18t-70 -48.5t-31 -71.5t-7 -86v-131q0 -47 5.5 -89t28.5 -73.5t69.5 -49.5t128.5 -18q40 0 89.5 4.5t100.5 20.5v-89q-22 -9 -48 -15t-52 -9.5t-51 -5t-45 -1.5q-92 0 -155.5 17t-103 55t-57 99t-17.5 150v122
q0 94 21 157.5t62.5 102t103.5 55t145 16.5q20 0 41 -1t41 -3q0 78 34 114.5t104 36.5q44 0 76 -9v-84q-11 3 -24.5 5t-33.5 2q-29 0 -40.5 -16.5t-11.5 -57.5v-102z" />
    <glyph glyph-name="uni0188" unicode="&#x188;" horiz-adv-x="524" 
d="M521 700q43 0 73 -9v-77q-11 2 -24 4.5t-32 2.5q-28 0 -39 -16t-11 -55v-93q-24 8 -61.5 13.5t-76.5 5.5q-49 0 -80.5 -12.5t-49.5 -34.5t-24.5 -51.5t-6.5 -63.5v-76q0 -36 6 -65.5t23.5 -50t48.5 -32t82 -11.5q33 0 71 5t78 19v-86q-34 -16 -77.5 -22t-78.5 -6
q-134 0 -195.5 60t-61.5 192v62q0 139 66.5 200t189.5 61q12 0 24 -0.5t23 -1.5q1 72 35.5 105t97.5 33z" />
    <glyph glyph-name="uni0189" unicode="&#x189;" horiz-adv-x="728" 
d="M92 0v339h-82v93h82v318h258q94 0 156.5 -18t100 -58t53.5 -104t16 -155v-98q0 -90 -15 -151t-51.5 -98t-98.5 -52.5t-156 -15.5h-263zM198 655v-223h210v-93h-210v-244h152q72 0 115.5 14t67 41t30.5 67t7 93v122q0 52 -7 93t-29.5 70t-65 44.5t-113.5 15.5h-157z" />
    <glyph glyph-name="uni018A" unicode="&#x18a;" horiz-adv-x="813" 
d="M177 0v660h-26q-38 0 -51 -14.5t-13 -43.5q0 -20 2.5 -35t5.5 -26h-95q-5 16 -7.5 36t-2.5 43q0 68 40.5 99t116.5 31h288q94 0 156.5 -18t100 -58t53.5 -104t16 -155v-98q0 -90 -15 -151t-51.5 -98t-98.5 -52.5t-156 -15.5h-263zM283 655v-560h152q72 0 115.5 14t67 41
t30.5 67t7 93v122q0 52 -7 93t-29.5 70t-65 44.5t-113.5 15.5h-157z" />
    <glyph glyph-name="uni018B" unicode="&#x18b;" horiz-adv-x="663" 
d="M308 347q-42 0 -70 -5t-45 -17t-24 -31t-7 -47v-52q0 -30 6.5 -50.5t24 -32.5t49 -17t82.5 -5h153v257h-169zM56 265q0 43 15.5 74.5t48.5 52t84.5 30t124.5 9.5h148v229h-354v90h460v-750h-254q-71 0 -122.5 8t-85 28t-49.5 55t-16 89v85z" />
    <glyph glyph-name="uni018C" unicode="&#x18c;" horiz-adv-x="615" 
d="M249 522q54 0 104.5 -17t83.5 -36v198h-340v92h443v-759h-88l-6 40q-40 -29 -87 -40t-82 -11q-59 0 -101 16.5t-68.5 46.5t-38.5 73.5t-12 97.5v100q0 42 11.5 78t35.5 63t60 42.5t85 15.5zM437 384q-32 18 -76 33t-89 15q-65 0 -88 -35t-23 -105v-55q0 -41 6.5 -71
t21.5 -49.5t40 -29.5t62 -10q35 0 74.5 10.5t71.5 32.5v264z" />
    <glyph glyph-name="uni018D" unicode="&#x18d;" horiz-adv-x="591" 
d="M371 -95q0 15 -13.5 28.5t-39 29t-62.5 36t-83 50.5q-65 42 -91.5 100.5t-26.5 127.5v45q0 121 62.5 181.5t177.5 60.5t178 -60.5t63 -181.5v-45q0 -110 -53 -167t-148 -67q41 -23 68 -41t42.5 -35t22 -34t6.5 -37v-5q0 -22 -8.5 -42.5t-29 -36.5t-55.5 -25.5t-88 -9.5
q-44 0 -82 7t-73 24v85q36 -17 77.5 -24t72.5 -7q25 0 41 3.5t25.5 9.5t13 13t3.5 14v3zM295 477q-66 0 -102 -37t-36 -126v-29q0 -89 36 -130.5t102 -41.5q67 0 103 41.5t36 130.5v29q0 89 -36 126t-103 37z" />
    <glyph glyph-name="uni018E" unicode="&#x18e;" horiz-adv-x="611" 
d="M531 750v-750h-491v95h385v246h-338v93h338v221h-371v95h477z" />
    <glyph glyph-name="uni018F" unicode="&#x18f;" horiz-adv-x="698" 
d="M40 414h502v56q0 45 -10 82t-36 63t-70.5 40.5t-112.5 14.5q-43 0 -97 -6t-108 -26v88q48 20 102 28.5t103 8.5q91 0 155 -19.5t104 -61t58 -105t18 -151.5v-91q0 -93 -22.5 -158.5t-62.5 -107t-95.5 -60.5t-121.5 -19q-60 0 -115 15t-97.5 53.5t-68 105t-25.5 168.5v82z
M144 326v-37q0 -41 11 -78.5t35 -66t62 -45.5t93 -17q52 0 89.5 16t61.5 44t35 65.5t11 81.5v37h-398z" />
    <glyph glyph-name="uni0190" unicode="&#x190;" horiz-adv-x="582" 
d="M318 339q-31 0 -60.5 -4.5t-52 -18.5t-36 -39t-13.5 -67q0 -57 45.5 -91t139.5 -34q63 0 120.5 10t100.5 27v-95q-38 -15 -95 -27t-129 -12q-143 0 -215.5 57t-72.5 165q0 70 34.5 114.5t106.5 62.5q-37 11 -60 29.5t-36.5 41t-18.5 47t-5 46.5q0 101 72 156.5t203 55.5
q63 0 110 -8.5t85 -23.5v-92q-45 16 -90.5 23t-99.5 7q-79 0 -126.5 -27.5t-47.5 -90.5t35 -91.5t104 -28.5h133v-92h-131z" />
    <glyph glyph-name="uni0191" unicode="&#x191;" horiz-adv-x="578" 
d="M548 750v-96h-362v-240h332v-96h-332v-318q-1 -88 -36 -131t-113 -43q-56 0 -93 12v91q14 -4 31.5 -7t39.5 -3q34 0 49.5 19.5t15.5 67.5v744h468z" />
    <glyph glyph-name="florin" unicode="&#x192;" horiz-adv-x="381" 
d="M213 465v-464q0 -89 -35 -132t-114 -43q-56 0 -93 12v84q14 -4 31.5 -7t39.5 -3q34 0 51 19.5t17 67.5v466h-90v87h90v90q0 69 38 100.5t110 31.5q30 0 59 -4.5t44 -9.5v-78q-17 3 -35.5 5t-37.5 2q-48 0 -61.5 -16t-13.5 -55v-66h139v-87h-139z" />
    <glyph glyph-name="uni0193" unicode="&#x193;" horiz-adv-x="694" 
d="M538.5 656.5q-21.5 3.5 -45.5 6t-48.5 4t-45.5 1.5q-82 0 -130 -17.5t-72.5 -48t-31 -71.5t-6.5 -87v-133q0 -51 6.5 -93.5t31.5 -72.5t73.5 -46.5t132.5 -16.5q30 0 63 2.5t62 8.5v224h-156v91h260v-385q-26 -10 -57.5 -16.5t-64.5 -10.5t-64 -6t-56 -2q-94 0 -158.5 17
t-104.5 55t-57.5 99t-17.5 150v121q0 94 20 157.5t61.5 102.5t105.5 55.5t152 16.5q20 0 40 -1t41 -3q0 78 34 114.5t104 36.5q44 0 76 -9v-84q-11 3 -24.5 5t-33.5 2q-29 0 -40.5 -16.5t-11.5 -57.5v-101q-16 5 -37.5 8.5z" />
    <glyph glyph-name="uni0194" unicode="&#x194;" horiz-adv-x="592" 
d="M124 130q0 35 15.5 65t29.5 52l71 116l-234 387h115l175 -296l182 296h108l-238 -383l58 -97q10 -16 20.5 -34t19.5 -36.5t14.5 -36.5t5.5 -34v-12q0 -60 -47.5 -95t-126.5 -35q-43 0 -74.5 11.5t-52.5 30.5t-31 43t-10 49v9zM292 277l-35 -57q-21 -34 -28.5 -49.5
t-7.5 -31.5v-6q0 -30 15.5 -46t55.5 -16q38 0 55.5 19.5t17.5 42.5v6q0 13 -8 29t-30 52z" />
    <glyph glyph-name="uni0195" unicode="&#x195;" horiz-adv-x="934" 
d="M859 171q0 -88 -53 -134.5t-167 -46.5q-47 0 -87.5 9.5t-70.5 31t-47 57t-17 87.5v198q0 24 -2 43t-10 32t-23 19.5t-40 6.5q-40 0 -81 -13t-83 -35v-426h-103v744l103 30v-263q42 22 88.5 37.5t89.5 15.5q46 0 77.5 -10.5t51 -30.5t27.5 -49.5t8 -68.5v-224
q0 -49 25 -75.5t94 -26.5q63 0 90 26t27 75v372h103v-381z" />
    <glyph glyph-name="uni0196" unicode="&#x196;" horiz-adv-x="325" 
d="M178 153q0 -41 9.5 -57.5t44.5 -16.5q19 0 41 2.5t42 8.5v-85q-22 -8 -49 -11.5t-52 -3.5q-78 0 -108.5 35t-30.5 119v600l103 30v-621z" />
    <glyph glyph-name="uni0197" unicode="&#x197;" horiz-adv-x="360" 
d="M233 430h117v-81h-117v-349h-106v349h-117v81h117v320h106v-320z" />
    <glyph glyph-name="uni0198" unicode="&#x198;" horiz-adv-x="675" 
d="M359 382l296 -382h-128l-252 331h-89v-331h-106v750h106v-325h94l173 249q14 21 27.5 37.5t29 28t34.5 17.5t45 6q22 0 37 -5t23 -11v-82q-8 5 -17.5 7t-24.5 2q-14 0 -24 -3.5t-17.5 -10t-14.5 -15t-14 -18.5z" />
    <glyph glyph-name="uni0199" unicode="&#x199;" horiz-adv-x="543" 
d="M246 347l171 205h117l-214 -251l218 -301h-122l-181 257h-58v-257h-102v617q0 76 34 116.5t102 40.5q26 0 43.5 -2.5t33.5 -7.5v-80q-11 3 -25 5.5t-34 2.5q-29 0 -40.5 -16.5t-11.5 -57.5v-271h69z" />
    <glyph glyph-name="uni019A" unicode="&#x19a;" horiz-adv-x="364" 
d="M229 0h-103v355h-108v81h108v308l103 30v-338h117v-81h-117v-355z" />
    <glyph glyph-name="uni019B" unicode="&#x19b;" horiz-adv-x="535" 
d="M59 530l137 62l-22 68q-5 14 -14.5 23t-29.5 9q-18 0 -32 -4.5t-25 -9.5v78q16 9 37 13.5t43 4.5q48 0 71.5 -18.5t36.5 -53.5l25 -68l141 64v-80l-115 -53l213 -565h-104l-107 294q-4 11 -9.5 26t-11 31.5t-10.5 34t-8 33.5h-2q-7 -32 -18 -65.5t-22 -60.5l-111 -293
h-112l212 511l-4 11l-159 -72v80z" />
    <glyph glyph-name="uni019C" unicode="&#x19c;" horiz-adv-x="981" 
d="M70 750h105v-565q0 -49 23.5 -75.5t71.5 -26.5q38 0 80.5 12.5t83.5 37.5q-1 5 -1 10.5v11.5v595h105v-565q0 -49 24 -75.5t72 -26.5q39 0 79.5 12.5t82.5 38.5v616h105v-750h-94l-10 45q-37 -24 -81 -39.5t-98 -15.5q-109 0 -157 66q-46 -31 -99.5 -48.5t-107.5 -17.5
q-88 0 -136 43.5t-48 121.5v595z" />
    <glyph glyph-name="uni019D" unicode="&#x19d;" horiz-adv-x="722" 
d="M642 0h-118l-293 498q-14 23 -26.5 51t-22.5 57v-606q0 -88 -33.5 -131t-111.5 -43q-56 0 -93 12v91q14 -4 31.5 -7t39.5 -3q32 0 47.5 18.5t17.5 62.5v750h118l294 -498q15 -26 27.5 -52t20.5 -51v601h102v-750z" />
    <glyph glyph-name="uni019E" unicode="&#x19e;" 
d="M530 -216h-103v589q0 49 -14.5 75t-65.5 26q-37 0 -82 -12.5t-87 -38.5v-423h-103v552h92l10 -43q42 24 92 39.5t92 15.5q93 0 131 -41.5t38 -117.5v-621z" />
    <glyph glyph-name="uni019F" unicode="&#x19f;" horiz-adv-x="752" 
d="M702 323q0 -163 -84 -249t-242 -86t-242 86t-84 249v104q0 162 84 248.5t242 86.5t242 -86.5t84 -248.5v-104zM376 84q50 0 90.5 13t69 42.5t44 76t15.5 113.5v10h-438v-10q0 -67 15.5 -113.5t44 -76t69 -42.5t90.5 -13zM595 421q0 67 -15.5 113.5t-44 75.5t-69 42.5
t-90.5 13.5t-90.5 -13.5t-69 -42.5t-44 -75.5t-15.5 -113.5v-1h438v1z" />
    <glyph glyph-name="Ohorn" unicode="&#x1a0;" horiz-adv-x="773" 
d="M702 323q0 -163 -84 -249t-242 -86t-242 86t-84 249v104q0 162 84 248.5t242 86.5q162 0 247 -93h29q41 0 52.5 17t11.5 46q0 20 -2.5 37.5t-5.5 28.5h95q5 -16 7.5 -38.5t2.5 -45.5q0 -125 -136 -134q12 -33 18.5 -71t6.5 -82v-104zM595 421q0 67 -15.5 113.5t-44 75.5
t-69 42.5t-90.5 13.5t-90.5 -13.5t-69 -42.5t-44 -75.5t-15.5 -113.5v-92q0 -67 15.5 -113.5t44 -76t69 -42.5t90.5 -13t90.5 13t69 42.5t44 76t15.5 113.5v92z" />
    <glyph glyph-name="ohorn" unicode="&#x1a1;" horiz-adv-x="627" 
d="M544 242q0 -121 -63.5 -186.5t-181.5 -65.5q-117 0 -180.5 65.5t-63.5 186.5v70q0 121 63.5 186.5t180.5 65.5q139 0 202 -92h9q39 0 50 16.5t11 44.5q0 19 -2.5 32t-4.5 24h84q9 -30 9 -73q0 -60 -29 -92.5t-91 -37.5q4 -17 5.5 -35.5t1.5 -38.5v-70zM440 312
q0 89 -37.5 127t-103.5 38q-65 0 -102.5 -38t-37.5 -127v-70q0 -89 37.5 -127t102.5 -38q66 0 103.5 38t37.5 127v70z" />
    <glyph glyph-name="uni01A2" unicode="&#x1a2;" horiz-adv-x="1039" 
d="M702 323q0 -163 -84 -249t-242 -86t-242 86t-84 249v104q0 162 84 248.5t242 86.5q120 0 198 -52q32 20 80.5 36.5t111.5 16.5q95 0 146 -41t51 -121v-817h-103v784q0 27 -4.5 46.5t-16.5 32t-32.5 18t-51.5 5.5q-55 0 -111 -28q58 -82 58 -215v-104zM595 421
q0 67 -15.5 113.5t-44 75.5t-69 42.5t-90.5 13.5t-90.5 -13.5t-69 -42.5t-44 -75.5t-15.5 -113.5v-92q0 -67 15.5 -113.5t44 -76t69 -42.5t90.5 -13t90.5 13t69 42.5t44 76t15.5 113.5v92z" />
    <glyph glyph-name="uni01A3" unicode="&#x1a3;" horiz-adv-x="868" 
d="M544 242q0 -121 -63.5 -186.5t-181.5 -65.5q-117 0 -180.5 65.5t-63.5 186.5v70q0 121 63.5 186.5t180.5 65.5q98 0 159 -47q28 20 67 33.5t90 13.5q95 0 139 -41t44 -121v-618h-103v594q0 55 -17.5 78.5t-69.5 23.5q-24 0 -47 -6.5t-48 -21.5q31 -59 31 -140v-70z
M440 312q0 89 -37.5 127t-103.5 38q-65 0 -102.5 -38t-37.5 -127v-70q0 -89 37.5 -127t102.5 -38q66 0 103.5 38t37.5 127v70z" />
    <glyph glyph-name="uni01A4" unicode="&#x1a4;" horiz-adv-x="744" 
d="M147 750h304q60 0 107.5 -7.5t81 -29.5t51.5 -62t18 -104v-47q0 -61 -16 -100t-49.5 -62t-85 -32t-122.5 -9h-153v-297h-106v660h-26q-38 0 -51 -14.5t-13 -43.5q0 -20 2.5 -35t5.5 -26h-95q-5 16 -7.5 36t-2.5 43q0 68 40.5 99t116.5 31zM283 657v-269h148q53 0 86.5 5
t52.5 17t26 32.5t7 52.5v63q0 27 -6.5 46t-23 30.5t-45 17t-72.5 5.5h-173z" />
    <glyph glyph-name="uni01A5" unicode="&#x1a5;" horiz-adv-x="618" 
d="M75 -216v833q0 76 34 116.5t102 40.5q26 0 43.5 -2.5t33.5 -7.5v-80q-11 3 -25 5.5t-34 2.5q-29 0 -40.5 -16.5t-11.5 -57.5v-110q38 23 86.5 39.5t102.5 16.5q50 0 86 -16t59.5 -43t35 -63t11.5 -76v-146q0 -119 -60 -175t-178 -56q-13 0 -31.5 1.5t-38 5t-38.5 8
t-34 10.5v-230h-103zM178 422v-322q30 -11 67.5 -17t66.5 -6q48 0 76 13t42.5 35t19 49.5t4.5 56.5v104q0 33 -4.5 59t-17 43.5t-34 27t-55.5 9.5q-39 0 -84 -15t-81 -37z" />
    <glyph glyph-name="uni01A6" unicode="&#x1a6;" horiz-adv-x="675" 
d="M80 750h106v-97h168q60 0 107.5 -7.5t81 -29.5t51.5 -62t18 -104v-47q0 -84 -30.5 -128t-95.5 -61l159 -320h-111l-152 306h-196v-200h-106v750zM186 560v-269h148q53 0 86.5 5t52.5 17t26 32.5t7 52.5v63q0 27 -6.5 46t-23.5 30.5t-45.5 17t-71.5 5.5h-173z" />
    <glyph glyph-name="uni01A7" unicode="&#x1a7;" horiz-adv-x="603" 
d="M40 206q0 40 6 71.5t27 57t61.5 46t108.5 37.5l91 23q31 8 52 17t34 22t18 30.5t5 42.5q0 31 -7 52.5t-25.5 35t-52 20t-87.5 6.5q-42 0 -91.5 -4.5t-91.5 -15.5v88q35 13 90.5 19t113.5 6q70 0 119 -13t79.5 -39t44.5 -65t14 -90q0 -46 -11 -79.5t-33.5 -58t-57 -41
t-81.5 -28.5l-92 -23q-42 -11 -67 -22.5t-38.5 -25.5t-17.5 -32.5t-4 -43.5q0 -26 7 -47.5t25 -36.5t49 -23t80 -8q43 0 106.5 7.5t138.5 33.5v-96q-66 -23 -126 -31t-123 -8q-77 0 -128 16.5t-81 45.5t-42.5 68.5t-12.5 85.5z" />
    <glyph glyph-name="uni01A8" unicode="&#x1a8;" horiz-adv-x="484" 
d="M40 153q0 35 6.5 61t24 45t49.5 33t83 26l41 10q27 7 44 13.5t26.5 14.5t13 20.5t3.5 31.5q0 20 -5.5 33.5t-19 22t-35.5 12t-56 3.5q-30 0 -67.5 -5t-67.5 -14v84q28 10 66.5 15t83.5 5q108 0 154.5 -43t46.5 -119q0 -33 -8 -58t-26.5 -44t-49 -32.5t-75.5 -24.5
l-41 -10q-33 -8 -51 -15.5t-27 -16.5t-10.5 -22t-1.5 -31q0 -36 23 -54t85 -18q32 0 81 6.5t104 27.5v-87q-45 -18 -97.5 -25.5t-93.5 -7.5q-59 0 -98.5 12.5t-62.5 34.5t-32.5 51.5t-9.5 64.5z" />
    <glyph glyph-name="uni01A9" unicode="&#x1a9;" horiz-adv-x="576" 
d="M534 750v-95h-334l209 -283l-212 -277h345v-95h-480v80l222 291l-222 302v77h472z" />
    <glyph glyph-name="uni01AA" unicode="&#x1aa;" horiz-adv-x="466" 
d="M159 496q-31 0 -57.5 11.5t-45.5 30.5t-30 44.5t-11 53.5t11 53t30 44t45.5 30t57.5 11t57.5 -11t46 -30t30.5 -44t11 -53v-637q0 -48 17 -67.5t51 -19.5q22 0 39.5 3t31.5 7v-84q-38 -12 -93 -12q-79 0 -114 43t-35 132v500q-10 -3 -20.5 -4t-21.5 -1zM159 576
q27 0 43 15.5t16 44.5q0 27 -16 44t-43 17q-26 0 -42.5 -17t-16.5 -44q0 -29 16.5 -44.5t42.5 -15.5z" />
    <glyph glyph-name="uni01AB" unicode="&#x1ab;" horiz-adv-x="403" 
d="M361 465h-147v-311q0 -39 11 -56.5t43 -17.5q24 0 48.5 4t44.5 13v-42h8v-54q0 -89 -35 -132t-114 -43q-56 0 -93 12v84q14 -4 31.5 -7t39.5 -3q32 0 49.5 18t19.5 61q-5 -1 -10.5 -1h-10.5q-72 0 -103.5 33.5t-31.5 99.5v342h-91v87h91v114l103 30v-144h147v-87z" />
    <glyph glyph-name="uni01AC" unicode="&#x1ac;" horiz-adv-x="642" 
d="M278 654h-109q-41 0 -56 -13t-15 -40q0 -18 2.5 -32t5.5 -25h-86q-5 16 -7.5 37t-2.5 42q0 68 40.5 97.5t116.5 29.5h455v-96h-238v-654h-106v654z" />
    <glyph glyph-name="uni01AD" unicode="&#x1ad;" horiz-adv-x="411" 
d="M222 552h147v-87h-147v-311q0 -39 11 -56.5t43 -17.5q24 0 48.5 4t44.5 13v-83q-20 -13 -52 -18.5t-63 -5.5q-72 0 -103.5 33.5t-31.5 99.5v342h-91v87h91v65q0 76 34.5 116.5t102.5 40.5q26 0 43.5 -2.5t33.5 -7.5v-80q-11 3 -25 5.5t-34 2.5q-29 0 -40.5 -16.5
t-11.5 -57.5v-66z" />
    <glyph glyph-name="uni01AE" unicode="&#x1ae;" horiz-adv-x="622" 
d="M20 654v96h582v-96h-238v-654q1 -44 16.5 -62.5t48.5 -18.5q22 0 39.5 3t31.5 7v-91q-38 -12 -93 -12q-79 0 -114 43t-35 131v654h-238z" />
    <glyph glyph-name="Uhorn" unicode="&#x1af;" horiz-adv-x="798" 
d="M177 750v-466q0 -56 11.5 -94t34.5 -61t59 -32.5t86 -9.5q51 0 88 9.5t60.5 32.5t34.5 61t11 94v466h107v-81h8q41 0 52.5 17t11.5 46q0 20 -2.5 37.5t-5.5 28.5h95q5 -16 7.5 -38.5t2.5 -45.5q0 -135 -160 -135h-9v-301q0 -149 -72.5 -219.5t-228.5 -70.5
q-155 0 -226.5 70t-71.5 220v472h107z" />
    <glyph glyph-name="uhorn" unicode="&#x1b0;" horiz-adv-x="640" 
d="M70 552h103v-372q0 -24 2.5 -43t11 -32t24 -19.5t41.5 -6.5q37 0 80 12.5t85 38.5v422h103v-80h3q39 0 50 16.5t11 44.5q0 19 -2.5 32t-4.5 24h84q9 -30 9 -73q0 -64 -34 -97.5t-107 -33.5h-9v-385h-92l-10 45q-42 -24 -90 -39.5t-90 -15.5q-93 0 -130.5 41t-37.5 118
v403z" />
    <glyph glyph-name="uni01B1" unicode="&#x1b1;" horiz-adv-x="807" 
d="M403 83q46 0 85 13.5t68 42.5t45.5 75t16.5 112v92q0 52 -10.5 92.5t-29 70.5t-43.5 49.5t-54 28.5v91h310v-89h-169q19 -16 37.5 -37.5t33 -50t23.5 -64.5t9 -80v-113q0 -82 -24.5 -143.5t-68 -103t-102 -62t-127.5 -20.5q-68 0 -127 20.5t-102.5 62t-68 103
t-24.5 143.5v113q0 44 9 80t23.5 64.5t33 50t37.5 37.5h-168v89h309v-91q-29 -9 -53.5 -28.5t-43.5 -49.5t-29.5 -70.5t-10.5 -92.5v-92q0 -66 16.5 -112t45.5 -75t68.5 -42.5t84.5 -13.5z" />
    <glyph glyph-name="uni01B2" unicode="&#x1b2;" horiz-adv-x="633" 
d="M121 750l171 -474q14 -37 27.5 -75t24.5 -81q10 42 22 80.5t26 75.5l113 317q6 17 8 26.5t2 22.5q0 17 -9.5 24t-32.5 7q-10 0 -20 -1t-18 -3v87q30 6 62 6q37 0 61 -9.5t38.5 -24.5t20.5 -34.5t6 -39.5t-5.5 -46t-15.5 -52l-206 -556h-105l-285 750h115z" />
    <glyph glyph-name="uni01B3" unicode="&#x1b3;" horiz-adv-x="704" 
d="M576 673q-20 0 -31 -11.5t-22 -33.5l-164 -312v-316h-106v314l-247 436h117l114 -222q16 -31 36 -69.5t33 -70.5q5 16 12.5 34.5t15.5 37.5t16 36.5t15 31.5l71 139q11 22 23.5 39.5t29 30t37 19t48.5 6.5q59 0 94.5 -29t35.5 -95q0 -23 -2.5 -40.5t-7.5 -33.5h-87
q3 11 5.5 23.5t2.5 32.5q0 29 -8.5 41t-30.5 12z" />
    <glyph glyph-name="uni01B4" unicode="&#x1b4;" horiz-adv-x="642" 
d="M245 -213h-103l78 214l-210 551h112l120 -346q7 -19 16 -49t15 -65h1q6 31 14.5 63.5t15.5 50.5l173 478q9 24 19.5 41t25.5 28t35.5 16t48.5 5q19 0 37 -3.5t29 -9.5v-81q-13 5 -23.5 6t-20.5 1q-26 0 -43 -11t-27 -37z" />
    <glyph glyph-name="uni01B5" unicode="&#x1b5;" horiz-adv-x="608" 
d="M395 430h141v-81h-201l-141 -191q-11 -15 -25.5 -34t-27.5 -35h443v-89h-564v80l198 269h-148v81h208l120 162q11 16 25.5 34.5t27.5 34.5h-416v89h537v-80z" />
    <glyph glyph-name="uni01B6" unicode="&#x1b6;" horiz-adv-x="492" 
d="M75 325h148l55 72l54 69h-286v86h407v-79l-114 -148h77v-81h-139l-67 -88q-11 -15 -25.5 -32.5t-31.5 -37.5h314v-86h-432v79l126 165h-86v81z" />
    <glyph glyph-name="uni01B7" unicode="&#x1b7;" horiz-adv-x="671" 
d="M473 661h-407v89h528v-81l-247 -319q90 2 146 -19.5t87 -58t42 -84.5t11 -99v-48q0 -57 -20 -105.5t-60.5 -83.5t-102.5 -55t-146 -20q-87 0 -157 14.5t-115 31.5v95q53 -19 117 -32t149 -13q60 0 103 13t70.5 36.5t40.5 55t13 69.5v32q0 43 -7 77.5t-27.5 59t-58.5 37.5
t-101 13q-22 0 -46 -2t-53 -5l-9 76z" />
    <glyph glyph-name="uni01B8" unicode="&#x1b8;" horiz-adv-x="671" 
d="M448 335l-9 -76q-29 3 -53 5t-46 2q-63 0 -101 -13t-58.5 -37.5t-27.5 -59t-7 -77.5v-32q0 -38 13 -69.5t40.5 -55t70.5 -36.5t103 -13q85 0 149 13t117 32v-95q-45 -17 -115 -31.5t-157 -14.5q-84 0 -146 20t-102.5 55t-60.5 83.5t-20 105.5v48q0 51 11 99t42 84.5
t87 58t146 19.5l-247 319v81h528v-89h-407z" />
    <glyph glyph-name="uni01B9" unicode="&#x1b9;" horiz-adv-x="555" 
d="M401 222l-24 -77q-23 2 -44 3.5t-38 1.5q-84 0 -119.5 -31.5t-35.5 -100.5v-26q0 -57 40 -89.5t125 -32.5q69 0 119.5 10.5t92.5 25.5v-92q-35 -14 -91.5 -25.5t-125.5 -11.5q-66 0 -115 16.5t-82 45t-49 66.5t-16 82v39q0 41 10.5 79t38 67t75 46t120.5 16l-190 239v79
h417v-86h-296q15 -19 27 -34t27 -35z" />
    <glyph glyph-name="uni01BA" unicode="&#x1ba;" horiz-adv-x="543" 
d="M60 -82q0 27 9 48t30 36.5t55 26.5t85 19q55 9 90 19t54.5 23t26.5 30t7 39q0 27 -10 43.5t-29.5 26t-49 12.5t-68.5 3q-17 0 -38 -1.5t-44 -3.5l-22 67l109 105q18 18 37 31t39 24h-295v86h417v-79l-182 -155q71 1 116.5 -9.5t72 -31t36.5 -50t10 -66.5
q0 -50 -16.5 -83.5t-49.5 -55.5t-82 -35t-113 -23q-28 -4 -46 -8t-28.5 -9.5t-14.5 -13t-4 -18.5q0 -8 5.5 -17t19.5 -16.5t38 -12.5t62 -5q30 0 54.5 3t46 7.5t41 11t40.5 14.5v-86q-35 -14 -80 -25.5t-107 -11.5t-104.5 12t-68.5 32t-37.5 45t-11.5 52z" />
    <glyph glyph-name="uni01BB" unicode="&#x1bb;" horiz-adv-x="630" 
d="M62 0v93l216 208h-182v81h265q25 26 42 46.5t27.5 40t14.5 39.5t4 45v9q0 52 -37.5 74.5t-121.5 22.5q-54 0 -108.5 -11.5t-96.5 -28.5v97q18 7 43 14t52.5 12.5t56.5 9t56 3.5q137 0 200 -49.5t63 -137.5v-12q0 -56 -16.5 -95.5t-48.5 -78.5h71v-81h-149q-1 -2 -2 -2.5
t-2 -1.5l-212 -203h384v-94h-519z" />
    <glyph glyph-name="uni01BC" unicode="&#x1bc;" horiz-adv-x="640" 
d="M35 745h516v-95h-307l-27 -200q26 3 53 5.5t54 2.5q73 0 122.5 -16t79 -43.5t42 -64.5t12.5 -79v-52q0 -46 -17.5 -85t-52 -67.5t-85.5 -44.5t-117 -16q-72 0 -133.5 11.5t-98.5 26.5v96q44 -16 102 -27t124 -11q85 0 128.5 31t43.5 91v34q0 71 -44 97.5t-138 26.5
q-19 0 -42.5 -1.5t-47.5 -4t-48 -5.5t-45 -7l40 302h-114v95z" />
    <glyph glyph-name="uni01BD" unicode="&#x1bd;" horiz-adv-x="465" 
d="M27 552h389v-87h-212l-14 -127q15 2 29.5 3t29.5 1q54 0 90 -13t57.5 -35t30 -49.5t8.5 -56.5v-39q0 -34 -13 -63t-38.5 -50.5t-63.5 -33.5t-87 -12q-54 0 -100 9t-73 20v89q32 -12 71.5 -20t88.5 -8q21 0 41.5 2.5t36.5 10t26 22t10 38.5v25q0 23 -5 39t-17.5 25.5
t-33.5 14t-53 4.5q-41 0 -75 -4t-65 -9l22 217h-80v87z" />
    <glyph glyph-name="uni01BE" unicode="&#x1be;" horiz-adv-x="516" 
d="M378 376q17 -12 35.5 -25.5t34 -34t25.5 -50.5t10 -75q0 -48 -12 -85t-40 -63t-74 -39.5t-113 -13.5q-57 0 -108 13t-86 29v92q42 -17 90.5 -29t99.5 -12q42 0 69 6t43 18.5t22.5 33t6.5 50.5q0 24 -3.5 40t-12 28.5t-22.5 24t-35 25.5q-32 21 -54 37.5t-36 34
t-21.5 37.5t-9.5 47h-132v87h131v114l103 30v-144h147v-87h-145q2 -12 7.5 -21.5t15.5 -19t25.5 -21t38.5 -27.5z" />
    <glyph glyph-name="uni01BF" unicode="&#x1bf;" horiz-adv-x="615" 
d="M75 -216v768h92l10 -44q38 23 86.5 39.5t102.5 16.5q50 0 86 -16t59.5 -43t35 -63t11.5 -76v-120q0 -54 -17 -93.5t-46 -67t-67 -45t-80 -27.5t-86 -15t-84 -8v-206h-103zM178 422v-344q63 3 114 13t87 30.5t55.5 53.5t19.5 82v78q0 33 -4.5 59t-17 43.5t-34 27
t-55.5 9.5q-39 0 -84 -15t-81 -37z" />
    <glyph glyph-name="uni01C0" unicode="&#x1c0;" horiz-adv-x="236" 
d="M161 -216h-86v990h86v-990z" />
    <glyph glyph-name="uni01C1" unicode="&#x1c1;" horiz-adv-x="419" 
d="M161 -216h-86v990h86v-990zM344 -216h-86v990h86v-990z" />
    <glyph glyph-name="uni01C2" unicode="&#x1c2;" horiz-adv-x="316" 
d="M201 414h110v-75h-110v-89h110v-75h-110v-391h-86v391h-110v75h110v89h-110v75h110v360h86v-360z" />
    <glyph glyph-name="uni01C3" unicode="&#x1c3;" horiz-adv-x="288" 
d="M200 750l-16 -533h-80l-16 533h112zM84 125h120v-125h-120v125z" />
    <glyph glyph-name="uni01C4" unicode="&#x1c4;" horiz-adv-x="1324" 
d="M1068 796h-89l-100 148h82l63 -80l64 80h80zM80 0v750h258q94 0 156.5 -18t100 -58t53.5 -104t16 -155v-98q0 -90 -15 -151t-51.5 -98t-98.5 -52.5t-156 -15.5h-263zM186 655v-560h152q72 0 115.5 14t67 41t30.5 67t7 93v122q0 52 -7 93t-29.5 70t-65 44.5t-113.5 15.5
h-157zM910 158q-11 -15 -25.5 -34t-27.5 -35h443v-89h-564v80l378 512q11 16 25.5 34.5t27.5 34.5h-416v89h537v-80z" />
    <glyph glyph-name="uni01C5" unicode="&#x1c5;" horiz-adv-x="1208" 
d="M80 0v750h258q94 0 156.5 -18t100 -58t53.5 -104t16 -155v-98q0 -90 -15 -151t-51.5 -98t-98.5 -52.5t-156 -15.5h-263zM186 655v-560h152q72 0 115.5 14t67 41t30.5 67t7 93v122q0 52 -7 93t-29.5 70t-65 44.5t-113.5 15.5h-157zM1169 473l-243 -317
q-11 -15 -25.5 -32.5t-31.5 -37.5h314v-86h-432v79l243 318l54 69h-286v86h407v-79zM1014 596h-89l-100 148h82l63 -80l64 80h80z" />
    <glyph glyph-name="uni01C6" unicode="&#x1c6;" horiz-adv-x="1107" 
d="M249 -10q-51 0 -87.5 15t-60 41.5t-34 62.5t-10.5 78v151q0 60 16 103t46 70t73 40t97 13q18 0 39 -2.5t41 -7t38 -11t30 -13.5v214l103 30v-774h-93l-10 43q-21 -13 -46 -23t-50 -16.5t-49 -10t-43 -3.5zM1068 473l-243 -317q-11 -15 -25.5 -32.5t-31.5 -37.5h314v-86
h-432v79l243 318l54 69h-286v86h407v-79zM437 124v319q-13 8 -30 14t-34.5 10.5t-34.5 6.5t-30 2q-33 0 -60.5 -6t-46.5 -21.5t-29.5 -42t-10.5 -68.5v-133q0 -63 23.5 -94.5t80.5 -31.5q38 0 82.5 9.5t89.5 35.5zM910 596h-89l-100 148h82l63 -80l64 80h80z" />
    <glyph glyph-name="uni01C7" unicode="&#x1c7;" horiz-adv-x="989" 
d="M186 750v-652h367v-98h-473v750h106zM913 750v-561q0 -51 -10 -88t-33.5 -62t-63 -37t-97.5 -12q-28 0 -62 5t-54 13v94q32 -10 61.5 -13t52.5 -3q51 0 75.5 23.5t24.5 85.5v555h106z" />
    <glyph glyph-name="uni01C8" unicode="&#x1c8;" horiz-adv-x="857" 
d="M186 750v-652h367v-98h-473v750h106zM782 552v-616q0 -43 -7 -73t-23 -49t-43 -28t-66 -9q-9 0 -22 0.5t-26.5 1.5t-26.5 3t-23 5v85q19 -3 38 -4.5t42 -1.5q35 0 44.5 16.5t9.5 57.5v612h103zM782 655h-103v111h103v-111z" />
    <glyph glyph-name="uni01C9" unicode="&#x1c9;" horiz-adv-x="527" 
d="M178 0h-103v744l103 30v-774zM452 552v-616q0 -43 -7 -73t-23 -49t-43 -28t-66 -9q-9 0 -22 0.5t-26.5 1.5t-26.5 3t-23 5v85q19 -3 38 -4.5t42 -1.5q35 0 44.5 16.5t9.5 57.5v612h103zM452 655h-103v111h103v-111z" />
    <glyph glyph-name="uni01CA" unicode="&#x1ca;" horiz-adv-x="1128" 
d="M642 0h-118l-293 498q-14 23 -26.5 51t-22.5 57v-606h-102v750h118l294 -498q15 -26 27.5 -52t20.5 -51v601h102v-750zM1052 750v-561q0 -51 -10 -88t-33.5 -62t-63 -37t-97.5 -12q-28 0 -62 5t-54 13v94q32 -10 61.5 -13t52.5 -3q51 0 75.5 23.5t24.5 85.5v555h106z" />
    <glyph glyph-name="uni01CB" unicode="&#x1cb;" horiz-adv-x="996" 
d="M642 0h-118l-293 498q-14 23 -26.5 51t-22.5 57v-606h-102v750h118l294 -498q15 -26 27.5 -52t20.5 -51v601h102v-750zM921 552v-616q0 -43 -7 -73t-23 -49t-43 -28t-66 -9q-9 0 -22 0.5t-26.5 1.5t-26.5 3t-23 5v85q19 -3 38 -4.5t42 -1.5q35 0 44.5 16.5t9.5 57.5v612
h103zM921 655h-103v111h103v-111z" />
    <glyph glyph-name="uni01CC" unicode="&#x1cc;" horiz-adv-x="874" 
d="M530 0h-103v373q0 49 -14.5 75t-65.5 26q-37 0 -82 -12.5t-87 -38.5v-423h-103v552h92l10 -43q42 24 92 39.5t92 15.5q93 0 131 -41.5t38 -117.5v-405zM799 552v-616q0 -43 -7 -73t-23 -49t-43 -28t-66 -9q-9 0 -22 0.5t-26.5 1.5t-26.5 3t-23 5v85q19 -3 38 -4.5
t42 -1.5q35 0 44.5 16.5t9.5 57.5v612h103zM799 655h-103v111h103v-111z" />
    <glyph glyph-name="uni01CD" unicode="&#x1cd;" horiz-adv-x="688" 
d="M383 796h-89l-100 148h82l63 -80l64 80h80zM678 0h-116l-75 211h-296l-74 -211h-107l275 750h103zM224 305h228l-69 195q-13 35 -23.5 67.5t-21.5 71.5q-11 -39 -22 -72t-23 -67z" />
    <glyph glyph-name="uni01CE" unicode="&#x1ce;" horiz-adv-x="554" 
d="M332 596h-89l-100 148h82l63 -80l64 80h80zM486 0h-89l-10 45q-14 -8 -36 -18t-47 -18t-52 -13.5t-51 -5.5q-81 0 -118 39t-37 123v18q0 49 17.5 81t50 50.5t79 25.5t104.5 7h86v29q0 31 -4 52.5t-16 35.5t-34.5 20.5t-58.5 6.5q-33 0 -76.5 -8t-83.5 -22v86
q45 16 89.5 23t87.5 7q64 0 103.5 -16.5t60.5 -44t28 -63.5t7 -76v-364zM383 120v135h-85q-44 0 -72.5 -4.5t-45 -15t-23.5 -29t-7 -46.5v-14q0 -40 17 -55t51 -15q13 0 34.5 3t45 9t46.5 14t39 18z" />
    <glyph glyph-name="uni01CF" unicode="&#x1cf;" horiz-adv-x="266" 
d="M178 796h-89l-100 148h82l63 -80l64 80h80zM186 0h-106v750h106v-750z" />
    <glyph glyph-name="uni01D0" unicode="&#x1d0;" horiz-adv-x="253" 
d="M171 596h-89l-100 148h82l63 -80l64 80h80zM178 0h-103v552h103v-552z" />
    <glyph glyph-name="uni01D1" unicode="&#x1d1;" horiz-adv-x="752" 
d="M420 796h-89l-100 148h82l63 -80l64 80h80zM702 323q0 -163 -84 -249t-242 -86t-242 86t-84 249v104q0 162 84 248.5t242 86.5t242 -86.5t84 -248.5v-104zM595 421q0 67 -15.5 113.5t-44 75.5t-69 42.5t-90.5 13.5t-90.5 -13.5t-69 -42.5t-44 -75.5t-15.5 -113.5v-92
q0 -67 15.5 -113.5t44 -76t69 -42.5t90.5 -13t90.5 13t69 42.5t44 76t15.5 113.5v92z" />
    <glyph glyph-name="uni01D2" unicode="&#x1d2;" horiz-adv-x="599" 
d="M344 596h-89l-100 148h82l63 -80l64 80h80zM544 242q0 -121 -63.5 -186.5t-181.5 -65.5q-117 0 -180.5 65.5t-63.5 186.5v70q0 121 63.5 186.5t180.5 65.5q118 0 181.5 -65.5t63.5 -186.5v-70zM440 312q0 89 -37.5 127t-103.5 38q-65 0 -102.5 -38t-37.5 -127v-70
q0 -89 37.5 -127t102.5 -38q66 0 103.5 38t37.5 127v70z" />
    <glyph glyph-name="uni01D3" unicode="&#x1d3;" horiz-adv-x="739" 
d="M414 796h-89l-100 148h82l63 -80l64 80h80zM177 750v-466q0 -56 11.5 -94t34.5 -61t59 -32.5t86 -9.5q51 0 88 9.5t60.5 32.5t34.5 61t11 94v466h107v-472q0 -149 -72.5 -219.5t-228.5 -70.5q-155 0 -226.5 70t-71.5 220v472h107z" />
    <glyph glyph-name="uni01D4" unicode="&#x1d4;" horiz-adv-x="597" 
d="M346 596h-89l-100 148h82l63 -80l64 80h80zM72 552h103v-372q0 -24 2.5 -43t11 -32t24 -19.5t41.5 -6.5q37 0 80 12.5t85 38.5v422h103v-552h-92l-10 45q-42 -24 -90 -39.5t-90 -15.5q-93 0 -130.5 41t-37.5 118v403z" />
    <glyph glyph-name="uni01D5" unicode="&#x1d5;" horiz-adv-x="739" 
d="M177 750v-466q0 -56 11.5 -94t34.5 -61t59 -32.5t86 -9.5q51 0 88 9.5t60.5 32.5t34.5 61t11 94v466h107v-472q0 -149 -72.5 -219.5t-228.5 -70.5q-155 0 -226.5 70t-71.5 220v472h107zM230 898h96v-106h-96v106zM413 898h96v-106h-96v106zM224 1030h292v-80h-292v80z
" />
    <glyph glyph-name="uni01D6" unicode="&#x1d6;" horiz-adv-x="597" 
d="M72 552h103v-372q0 -24 2.5 -43t11 -32t24 -19.5t41.5 -6.5q37 0 80 12.5t85 38.5v422h103v-552h-92l-10 45q-42 -24 -90 -39.5t-90 -15.5q-93 0 -130.5 41t-37.5 118v403zM156 820h292v-80h-292v80zM162 698h96v-106h-96v106zM345 698h96v-106h-96v106z" />
    <glyph glyph-name="uni01D7" unicode="&#x1d7;" horiz-adv-x="739" 
d="M177 750v-466q0 -56 11.5 -94t34.5 -61t59 -32.5t86 -9.5q51 0 88 9.5t60.5 32.5t34.5 61t11 94v466h107v-472q0 -149 -72.5 -219.5t-228.5 -70.5q-155 0 -226.5 70t-71.5 220v472h107zM392 1059h130l-113 -134h-105zM230 898h96v-106h-96v106zM413 898h96v-106h-96v106z
" />
    <glyph glyph-name="uni01D8" unicode="&#x1d8;" horiz-adv-x="597" 
d="M72 552h103v-372q0 -24 2.5 -43t11 -32t24 -19.5t41.5 -6.5q37 0 80 12.5t85 38.5v422h103v-552h-92l-10 45q-42 -24 -90 -39.5t-90 -15.5q-93 0 -130.5 41t-37.5 118v403zM324 861h130l-113 -134h-105zM162 698h96v-106h-96v106zM345 698h96v-106h-96v106z" />
    <glyph glyph-name="uni01D9" unicode="&#x1d9;" horiz-adv-x="739" 
d="M177 750v-466q0 -56 11.5 -94t34.5 -61t59 -32.5t86 -9.5q51 0 88 9.5t60.5 32.5t34.5 61t11 94v466h107v-472q0 -149 -72.5 -219.5t-228.5 -70.5q-155 0 -226.5 70t-71.5 220v472h107zM412 922h-89l-100 148h82l63 -80l64 80h80zM230 898h96v-106h-96v106zM413 898h96
v-106h-96v106z" />
    <glyph glyph-name="uni01DA" unicode="&#x1da;" horiz-adv-x="597" 
d="M345 729h-89l-100 148h82l63 -80l64 80h80zM72 552h103v-372q0 -24 2.5 -43t11 -32t24 -19.5t41.5 -6.5q37 0 80 12.5t85 38.5v422h103v-552h-92l-10 45q-42 -24 -90 -39.5t-90 -15.5q-93 0 -130.5 41t-37.5 118v403zM162 698h96v-106h-96v106zM345 698h96v-106h-96v106z
" />
    <glyph glyph-name="uni01DB" unicode="&#x1db;" horiz-adv-x="739" 
d="M177 750v-466q0 -56 11.5 -94t34.5 -61t59 -32.5t86 -9.5q51 0 88 9.5t60.5 32.5t34.5 61t11 94v466h107v-472q0 -149 -72.5 -219.5t-228.5 -70.5q-155 0 -226.5 70t-71.5 220v472h107zM435 925h-108l-110 134h130zM230 898h96v-106h-96v106zM413 898h96v-106h-96v106z
" />
    <glyph glyph-name="uni01DC" unicode="&#x1dc;" horiz-adv-x="597" 
d="M72 552h103v-372q0 -24 2.5 -43t11 -32t24 -19.5t41.5 -6.5q37 0 80 12.5t85 38.5v422h103v-552h-92l-10 45q-42 -24 -90 -39.5t-90 -15.5q-93 0 -130.5 41t-37.5 118v403zM359 727h-99l-102 135h120zM162 698h96v-106h-96v106zM345 698h96v-106h-96v106z" />
    <glyph glyph-name="uni01DD" unicode="&#x1dd;" horiz-adv-x="576" 
d="M48 308h371v22q0 33 -6.5 60.5t-24 46.5t-49 29.5t-82.5 10.5q-32 0 -74.5 -5t-82.5 -19v83q35 15 80 21.5t81 6.5q136 0 198 -60t62 -191v-62q0 -69 -17.5 -118.5t-49 -81t-74.5 -46.5t-94 -15q-56 0 -100 13.5t-74.5 45t-47 84t-16.5 129.5v46zM149 229v-7
q0 -31 7 -57.5t23 -46.5t42 -31.5t64 -11.5q36 0 61.5 11.5t41.5 31.5t23.5 46.5t7.5 57.5v7h-270z" />
    <glyph glyph-name="uni01DE" unicode="&#x1de;" horiz-adv-x="688" 
d="M678 0h-116l-75 211h-296l-74 -211h-107l275 750h103zM224 305h228l-69 195q-13 35 -23.5 67.5t-21.5 71.5q-11 -39 -22 -72t-23 -67zM199 898h96v-106h-96v106zM382 898h96v-106h-96v106zM192 1030h292v-80h-292v80z" />
    <glyph glyph-name="uni01DF" unicode="&#x1df;" horiz-adv-x="554" 
d="M486 0h-89l-10 45q-14 -8 -36 -18t-47 -18t-52 -13.5t-51 -5.5q-81 0 -118 39t-37 123v18q0 49 17.5 81t50 50.5t79 25.5t104.5 7h86v29q0 31 -4 52.5t-16 35.5t-34.5 20.5t-58.5 6.5q-33 0 -76.5 -8t-83.5 -22v86q45 16 89.5 23t87.5 7q64 0 103.5 -16.5t60.5 -44
t28 -63.5t7 -76v-364zM383 120v135h-85q-44 0 -72.5 -4.5t-45 -15t-23.5 -29t-7 -46.5v-14q0 -40 17 -55t51 -15q13 0 34.5 3t45 9t46.5 14t39 18zM140 820h292v-80h-292v80zM146 698h96v-106h-96v106zM329 698h96v-106h-96v106z" />
    <glyph glyph-name="uni01E0" unicode="&#x1e0;" horiz-adv-x="688" 
d="M678 0h-116l-75 211h-296l-74 -211h-107l275 750h103zM224 305h228l-69 195q-13 35 -23.5 67.5t-21.5 71.5q-11 -39 -22 -72t-23 -67zM289 907h98v-106h-98v106zM192 1030h292v-80h-292v80z" />
    <glyph glyph-name="uni01E1" unicode="&#x1e1;" horiz-adv-x="554" 
d="M486 0h-89l-10 45q-14 -8 -36 -18t-47 -18t-52 -13.5t-51 -5.5q-81 0 -118 39t-37 123v18q0 49 17.5 81t50 50.5t79 25.5t104.5 7h86v29q0 31 -4 52.5t-16 35.5t-34.5 20.5t-58.5 6.5q-33 0 -76.5 -8t-83.5 -22v86q45 16 89.5 23t87.5 7q64 0 103.5 -16.5t60.5 -44
t28 -63.5t7 -76v-364zM383 120v135h-85q-44 0 -72.5 -4.5t-45 -15t-23.5 -29t-7 -46.5v-14q0 -40 17 -55t51 -15q13 0 34.5 3t45 9t46.5 14t39 18zM247 708h98v-106h-98v106zM150 820h292v-80h-292v80z" />
    <glyph glyph-name="uni01E2" unicode="&#x1e2;" horiz-adv-x="1052" 
d="M998 750v-95h-371v-221h338v-93h-338v-246h385v-95h-491v211h-249l-135 -211h-127l481 750h507zM468 535l-143 -230h196v332q-16 -36 -29 -60t-24 -42zM490 920h292v-80h-292v80z" />
    <glyph glyph-name="uni01E3" unicode="&#x1e3;" horiz-adv-x="899" 
d="M851 251h-371v-27q0 -33 6.5 -60.5t24 -46.5t49 -29.5t82.5 -10.5q32 0 74.5 5t82.5 19v-83q-35 -15 -80 -21.5t-81 -6.5q-78 0 -127.5 16t-80.5 57q-52 -35 -108 -54t-127 -19q-81 0 -118 39t-37 123v18q0 46 17.5 76.5t50 49t79 26.5t104.5 8h86v33q0 31 -4 52.5
t-16 35.5t-34.5 20.5t-58.5 6.5q-33 0 -76.5 -8t-83.5 -22v86q45 16 89.5 23t87.5 7q65 0 103 -17t61 -50q28 32 72.5 49.5t95.5 17.5q55 0 99.5 -13.5t75 -45t47 -84t16.5 -129.5v-41zM377 120v131h-85q-44 0 -72.5 -3.5t-45 -13.5t-23.5 -28t-7 -46v-14q0 -40 17 -55
t51 -15q16 0 38 3t45 9t44.5 14t37.5 18zM750 330v7q0 31 -7 57t-23 45t-42 29.5t-64 10.5q-35 0 -60 -10t-41.5 -28t-24 -43t-8.5 -55v-13h270zM303 720h292v-80h-292v80z" />
    <glyph glyph-name="uni01E4" unicode="&#x1e4;" horiz-adv-x="720" 
d="M372 269h156v80h-156v91h260v-171h72v-81h-72v-163q-26 -10 -56.5 -16.5t-62.5 -10.5t-62.5 -6t-55.5 -2q-96 0 -161.5 17t-106 55t-58 99t-17.5 150v117q0 94 20 157.5t61.5 102.5t105.5 55.5t152 16.5q46 0 96 -5t89 -19v-90q-16 5 -37.5 8.5t-45.5 6t-48.5 4
t-45.5 1.5q-82 0 -130 -17.5t-72.5 -48t-31 -71.5t-6.5 -87v-129q0 -51 6.5 -93.5t31.5 -72.5t73.5 -46.5t132.5 -16.5q30 0 63 2.5t62 8.5v93h-156v81z" />
    <glyph glyph-name="uni01E5" unicode="&#x1e5;" horiz-adv-x="618" 
d="M80 -14h357v70q-36 -20 -86 -31t-100 -11q-54 0 -91 15.5t-60 43t-33 64.5t-10 80v119q0 118 60.5 173t162.5 55q20 0 43.5 -3.5t45.5 -9.5t40.5 -15t30.5 -21l8 37h92v-566h78v-77h-86q-16 -66 -71.5 -99t-165.5 -33q-36 0 -72.5 4.5t-64.5 10.5v85q29 -7 65 -10.5
t63 -3.5q57 0 89.5 10t47.5 36h-343v77zM437 138v292q-21 19 -62.5 32.5t-86.5 13.5q-26 0 -49.5 -6.5t-40.5 -22t-27 -42.5t-10 -69v-102q0 -67 23 -99t86 -32q42 0 85.5 8.5t81.5 26.5z" />
    <glyph glyph-name="Gcaron" unicode="&#x1e6;" horiz-adv-x="692" 
d="M417 796h-89l-100 148h82l63 -80l64 80h80zM576 648q-16 5 -37.5 8.5t-45.5 6t-48.5 4t-45.5 1.5q-82 0 -130 -17.5t-72.5 -48t-31 -71.5t-6.5 -87v-133q0 -51 6.5 -93.5t31.5 -72.5t73.5 -46.5t132.5 -16.5q30 0 63 2.5t62 8.5v224h-156v91h260v-385
q-26 -10 -57.5 -16.5t-64.5 -10.5t-64 -6t-56 -2q-94 0 -158.5 17t-104.5 55t-57.5 99t-17.5 150v121q0 94 20 157.5t61.5 102.5t105.5 55.5t152 16.5q46 0 96 -5t89 -19v-90z" />
    <glyph glyph-name="gcaron" unicode="&#x1e7;" horiz-adv-x="618" 
d="M367 596h-89l-100 148h82l63 -80l64 80h80zM254 -6q-54 0 -91 15.5t-60 43t-33 64.5t-10 80v139q0 118 60.5 173t162.5 55q20 0 43.5 -3.5t45.5 -9.5t40.5 -15t30.5 -21l8 37h92v-573q0 -51 -12.5 -89t-41.5 -63t-76 -37.5t-115 -12.5q-36 0 -72.5 4.5t-64.5 10.5v85
q29 -7 65 -10.5t63 -3.5q43 0 72 5.5t46.5 19t25 36.5t7.5 58v54q-36 -20 -86 -31t-100 -11zM440 118v312q-21 19 -62.5 32.5t-86.5 13.5q-26 0 -49.5 -6.5t-40.5 -22t-27 -42.5t-10 -69v-122q0 -67 23 -99t86 -32q42 0 85.5 8.5t81.5 26.5z" />
    <glyph glyph-name="uni01E8" unicode="&#x1e8;" horiz-adv-x="675" 
d="M392 796h-89l-100 148h82l63 -80l64 80h80zM359 382l296 -382h-128l-252 331h-89v-331h-106v750h106v-325h94l226 325h120z" />
    <glyph glyph-name="uni01E9" unicode="&#x1e9;" horiz-adv-x="543" 
d="M352 796h-89l-100 148h82l63 -80l64 80h80zM177 774v-427h69l171 205h117l-214 -251l218 -301h-122l-181 257h-58v-257h-102v744z" />
    <glyph glyph-name="uni01EA" unicode="&#x1ea;" horiz-adv-x="752" 
d="M702 323q0 -128 -52 -208t-151 -110h1q-20 -11 -37.5 -24.5t-30 -28t-19.5 -28.5t-7 -26v-8q0 -20 15 -28t42 -8q15 0 29.5 2t25.5 5v-73q-13 -4 -33 -7.5t-48 -3.5q-65 0 -100.5 27.5t-35.5 69.5v9q0 32 23 60.5t52 44.5q-158 0 -242 86t-84 249v104q0 162 84 248.5
t242 86.5t242 -86.5t84 -248.5v-104zM595 421q0 67 -15.5 113.5t-44 75.5t-69 42.5t-90.5 13.5t-90.5 -13.5t-69 -42.5t-44 -75.5t-15.5 -113.5v-92q0 -67 15.5 -113.5t44 -76t69 -42.5t90.5 -13t90.5 13t69 42.5t44 76t15.5 113.5v92z" />
    <glyph glyph-name="uni01EB" unicode="&#x1eb;" horiz-adv-x="599" 
d="M544 242q0 -86 -32.5 -144t-93.5 -85l-5 -2l-1 -1q-19 -11 -36 -25.5t-29.5 -30t-20 -30t-7.5 -26.5v-8q0 -20 15 -28t42 -8q15 0 29.5 2t25.5 5v-73q-13 -4 -33 -7.5t-48 -3.5q-65 0 -100.5 27.5t-35.5 69.5v9q0 16 6.5 32t18 30t25.5 25.5t29 19.5q-115 2 -176.5 67
t-61.5 185v70q0 121 63.5 186.5t180.5 65.5q118 0 181.5 -65.5t63.5 -186.5v-70zM440 312q0 89 -37.5 127t-103.5 38q-65 0 -102.5 -38t-37.5 -127v-70q0 -89 37.5 -127t102.5 -38q66 0 103.5 38t37.5 127v70z" />
    <glyph glyph-name="uni01EC" unicode="&#x1ec;" horiz-adv-x="752" 
d="M702 323q0 -128 -52 -208t-151 -110h1q-20 -11 -37.5 -24.5t-30 -28t-19.5 -28.5t-7 -26v-8q0 -20 15 -28t42 -8q15 0 29.5 2t25.5 5v-73q-13 -4 -33 -7.5t-48 -3.5q-65 0 -100.5 27.5t-35.5 69.5v9q0 32 23 60.5t52 44.5q-158 0 -242 86t-84 249v104q0 162 84 248.5
t242 86.5t242 -86.5t84 -248.5v-104zM595 421q0 67 -15.5 113.5t-44 75.5t-69 42.5t-90.5 13.5t-90.5 -13.5t-69 -42.5t-44 -75.5t-15.5 -113.5v-92q0 -67 15.5 -113.5t44 -76t69 -42.5t90.5 -13t90.5 13t69 42.5t44 76t15.5 113.5v92zM230 920h292v-80h-292v80z" />
    <glyph glyph-name="uni01ED" unicode="&#x1ed;" horiz-adv-x="599" 
d="M544 242q0 -86 -32.5 -144t-93.5 -85q-20 -11 -38 -26t-31.5 -30.5t-21.5 -31t-8 -27.5v-8q0 -20 15 -28t42 -8q15 0 29.5 2t25.5 5v-73q-13 -4 -33 -7.5t-48 -3.5q-65 0 -100.5 27.5t-35.5 69.5v9q0 16 6.5 32t18 30t25.5 25.5t29 19.5q-115 2 -176.5 67t-61.5 185v70
q0 121 63.5 186.5t180.5 65.5q118 0 181.5 -65.5t63.5 -186.5v-70zM440 312q0 89 -37.5 127t-103.5 38q-65 0 -102.5 -38t-37.5 -127v-70q0 -89 37.5 -127t102.5 -38q66 0 103.5 38t37.5 127v70zM154 720h292v-80h-292v80z" />
    <glyph glyph-name="uni01EE" unicode="&#x1ee;" horiz-adv-x="677" 
d="M383 796h-89l-100 148h82l63 -80l64 80h80zM479 661h-407v89h528v-81l-247 -319q90 2 146 -19.5t87 -58t42 -84.5t11 -99v-48q0 -57 -20 -105.5t-60.5 -83.5t-102.5 -55t-146 -20q-87 0 -157 14.5t-115 31.5v95q53 -19 117 -32t149 -13q60 0 103 13t70.5 36.5t40.5 55
t13 69.5v32q0 43 -7 77.5t-27.5 59t-58.5 37.5t-101 13q-22 0 -46 -2t-53 -5l-9 76z" />
    <glyph glyph-name="uni01EF" unicode="&#x1ef;" horiz-adv-x="555" 
d="M288 397q15 20 27 35t27 34h-296v86h417v-79l-190 -239q73 1 120.5 -16t75 -46t38 -67t10.5 -79v-39q0 -44 -16 -82t-49 -66.5t-82 -45t-115 -16.5q-69 0 -125.5 11.5t-91.5 25.5v92q42 -15 92.5 -25.5t119.5 -10.5q85 0 125 32.5t40 89.5v26q0 69 -35.5 100.5
t-119.5 31.5q-17 0 -38 -1.5t-44 -3.5l-24 77zM312 596h-89l-100 148h82l63 -80l64 80h80z" />
    <glyph glyph-name="uni01F0" unicode="&#x1f0;" horiz-adv-x="274" 
d="M199 552v-616q0 -43 -7 -73t-23 -49t-43 -28t-66 -9q-9 0 -22 0.5t-26.5 1.5t-26.5 3t-23 5v85q19 -3 38 -4.5t42 -1.5q35 0 44.5 16.5t9.5 57.5v612h103zM192 596h-89l-100 148h82l63 -80l64 80h80z" />
    <glyph glyph-name="uni01F1" unicode="&#x1f1;" horiz-adv-x="1324" 
d="M80 0v750h258q94 0 156.5 -18t100 -58t53.5 -104t16 -155v-98q0 -90 -15 -151t-51.5 -98t-98.5 -52.5t-156 -15.5h-263zM186 655v-560h152q72 0 115.5 14t67 41t30.5 67t7 93v122q0 52 -7 93t-29.5 70t-65 44.5t-113.5 15.5h-157zM910 158q-11 -15 -25.5 -34t-27.5 -35
h443v-89h-564v80l378 512q11 16 25.5 34.5t27.5 34.5h-416v89h537v-80z" />
    <glyph glyph-name="uni01F2" unicode="&#x1f2;" horiz-adv-x="1208" 
d="M80 0v750h258q94 0 156.5 -18t100 -58t53.5 -104t16 -155v-98q0 -90 -15 -151t-51.5 -98t-98.5 -52.5t-156 -15.5h-263zM186 655v-560h152q72 0 115.5 14t67 41t30.5 67t7 93v122q0 52 -7 93t-29.5 70t-65 44.5t-113.5 15.5h-157zM1169 473l-243 -317
q-11 -15 -25.5 -32.5t-31.5 -37.5h314v-86h-432v79l243 318l54 69h-286v86h407v-79z" />
    <glyph glyph-name="uni01F3" unicode="&#x1f3;" horiz-adv-x="1110" 
d="M252 -10q-51 0 -87.5 15t-60 41.5t-34 62.5t-10.5 78v151q0 60 16 103t46 70t73 40t97 13q18 0 39 -2.5t41 -7t38 -11t30 -13.5v214l103 30v-774h-93l-10 43q-21 -13 -46 -23t-50 -16.5t-49 -10t-43 -3.5zM1071 473l-243 -317q-11 -15 -25.5 -32.5t-31.5 -37.5h314v-86
h-432v79l243 318l54 69h-286v86h407v-79zM440 124v319q-13 8 -30 14t-34.5 10.5t-34.5 6.5t-30 2q-33 0 -60.5 -6t-46.5 -21.5t-29.5 -42t-10.5 -68.5v-133q0 -63 23.5 -94.5t80.5 -31.5q38 0 82.5 9.5t89.5 35.5z" />
    <glyph glyph-name="uni01F4" unicode="&#x1f4;" horiz-adv-x="692" 
d="M576 648q-16 5 -37.5 8.5t-45.5 6t-48.5 4t-45.5 1.5q-82 0 -130 -17.5t-72.5 -48t-31 -71.5t-6.5 -87v-133q0 -51 6.5 -93.5t31.5 -72.5t73.5 -46.5t132.5 -16.5q30 0 63 2.5t62 8.5v224h-156v91h260v-385q-26 -10 -57.5 -16.5t-64.5 -10.5t-64 -6t-56 -2
q-94 0 -158.5 17t-104.5 55t-57.5 99t-17.5 150v121q0 94 20 157.5t61.5 102.5t105.5 55.5t152 16.5q46 0 96 -5t89 -19v-90zM400 940h130l-113 -134h-105z" />
    <glyph glyph-name="uni01F5" unicode="&#x1f5;" horiz-adv-x="618" 
d="M254 -6q-54 0 -91 15.5t-60 43t-33 64.5t-10 80v139q0 118 60.5 173t162.5 55q20 0 43.5 -3.5t45.5 -9.5t40.5 -15t30.5 -21l8 37h92v-573q0 -51 -12.5 -89t-41.5 -63t-76 -37.5t-115 -12.5q-36 0 -72.5 4.5t-64.5 10.5v85q29 -7 65 -10.5t63 -3.5q43 0 72 5.5t46.5 19
t25 36.5t7.5 58v54q-36 -20 -86 -31t-100 -11zM440 118v312q-21 19 -62.5 32.5t-86.5 13.5q-26 0 -49.5 -6.5t-40.5 -22t-27 -42.5t-10 -69v-122q0 -67 23 -99t86 -32q42 0 85.5 8.5t81.5 26.5zM311 740h130l-113 -134h-105z" />
    <glyph glyph-name="uni01F6" unicode="&#x1f6;" horiz-adv-x="1068" 
d="M654 750v-569q0 -49 25 -75.5t94 -26.5q63 0 90 26t27 75v372h103v-381q0 -88 -53 -134.5t-167 -46.5q-47 0 -88 9.5t-71.5 31t-48 57t-17.5 87.5v166h-362v-341h-106v750h106v-313h362v313h106z" />
    <glyph glyph-name="uni01F7" unicode="&#x1f7;" horiz-adv-x="655" 
d="M80 750h106v-62l121 50q24 10 51.5 17.5t52.5 7.5q59 0 97.5 -17t61.5 -46t32.5 -68.5t9.5 -84.5v-77q0 -41 -6 -85t-22.5 -87.5t-46.5 -85t-77 -76t-114.5 -60t-159.5 -38.5v-254h-106v966zM186 585v-446q76 12 129.5 33.5t89 49t56 59t30.5 64t12.5 63.5t2.5 57v91
q0 57 -27 83.5t-67 26.5q-26 0 -58 -13z" />
    <glyph glyph-name="uni01F8" unicode="&#x1f8;" horiz-adv-x="722" 
d="M642 0h-118l-293 498q-14 23 -26.5 51t-22.5 57v-606h-102v750h118l294 -498q15 -26 27.5 -52t20.5 -51v601h102v-750zM470 806h-108l-110 134h130z" />
    <glyph glyph-name="uni01F9" unicode="&#x1f9;" horiz-adv-x="602" 
d="M530 0h-103v373q0 49 -14.5 75t-65.5 26q-37 0 -82 -12.5t-87 -38.5v-423h-103v552h92l10 -43q42 24 92 39.5t92 15.5q93 0 131 -41.5t38 -117.5v-405zM409 606h-108l-110 134h130z" />
    <glyph glyph-name="Aringacute" unicode="&#x1fa;" horiz-adv-x="688" 
d="M338 833q23 0 36.5 13.5t13.5 36.5t-13.5 37t-36.5 14q-22 0 -35.5 -14t-13.5 -37t13.5 -36.5t35.5 -13.5zM338 778q-23 0 -43 8.5t-34.5 23t-22.5 33.5t-8 40t8 40t22.5 33.5t34.5 22.5t43 8q24 0 44 -8t34.5 -22.5t22.5 -33.5t8 -40t-8 -40t-22.5 -33.5t-34.5 -23
t-44 -8.5zM678 0h-116l-75 211h-296l-74 -211h-107l275 750h103zM224 305h228l-69 195q-13 35 -23.5 67.5t-21.5 71.5q-11 -39 -22 -72t-23 -67zM386 1146h130l-113 -134h-105z" />
    <glyph glyph-name="aringacute" unicode="&#x1fb;" horiz-adv-x="554" 
d="M291 641q23 0 36.5 13.5t13.5 36.5t-13.5 37t-36.5 14q-22 0 -35.5 -14t-13.5 -37t13.5 -36.5t35.5 -13.5zM291 586q-23 0 -43 8.5t-34.5 23t-22.5 33.5t-8 40t8 40t22.5 33.5t34.5 22.5t43 8q24 0 44 -8t34.5 -22.5t22.5 -33.5t8 -40t-8 -40t-22.5 -33.5t-34.5 -23
t-44 -8.5zM486 0h-89l-10 45q-14 -8 -36 -18t-47 -18t-52 -13.5t-51 -5.5q-81 0 -118 39t-37 123v18q0 49 17.5 81t50 50.5t79 25.5t104.5 7h86v29q0 31 -4 52.5t-16 35.5t-34.5 20.5t-58.5 6.5q-33 0 -76.5 -8t-83.5 -22v86q45 16 89.5 23t87.5 7q64 0 103.5 -16.5
t60.5 -44t28 -63.5t7 -76v-364zM383 120v135h-85q-44 0 -72.5 -4.5t-45 -15t-23.5 -29t-7 -46.5v-14q0 -40 17 -55t51 -15q13 0 34.5 3t45 9t46.5 14t39 18zM326 951h130l-113 -134h-105z" />
    <glyph glyph-name="AEacute" unicode="&#x1fc;" horiz-adv-x="1052" 
d="M998 750v-95h-371v-221h338v-93h-338v-246h385v-95h-491v211h-249l-135 -211h-127l481 750h507zM468 535l-143 -230h196v332q-16 -36 -29 -60t-24 -42zM620 940h130l-113 -134h-105z" />
    <glyph glyph-name="aeacute" unicode="&#x1fd;" horiz-adv-x="899" 
d="M851 251h-371v-27q0 -33 6.5 -60.5t24 -46.5t49 -29.5t82.5 -10.5q32 0 74.5 5t82.5 19v-83q-35 -15 -80 -21.5t-81 -6.5q-78 0 -127.5 16t-80.5 57q-52 -35 -108 -54t-127 -19q-81 0 -118 39t-37 123v18q0 46 17.5 76.5t50 49t79 26.5t104.5 8h86v33q0 31 -4 52.5
t-16 35.5t-34.5 20.5t-58.5 6.5q-33 0 -76.5 -8t-83.5 -22v86q45 16 89.5 23t87.5 7q65 0 103 -17t61 -50q28 32 72.5 49.5t95.5 17.5q55 0 99.5 -13.5t75 -45t47 -84t16.5 -129.5v-41zM377 120v131h-85q-44 0 -72.5 -3.5t-45 -13.5t-23.5 -28t-7 -46v-14q0 -40 17 -55
t51 -15q16 0 38 3t45 9t44.5 14t37.5 18zM750 330v7q0 31 -7 57t-23 45t-42 29.5t-64 10.5q-35 0 -60 -10t-41.5 -28t-24 -43t-8.5 -55v-13h270zM490 740h130l-113 -134h-105z" />
    <glyph glyph-name="Oslashacute" unicode="&#x1fe;" horiz-adv-x="752" 
d="M702 322q0 -163 -84 -249t-242 -86q-110 0 -186 44l-50 -74h-95l83 123q-78 86 -78 242v106q0 162 84 248.5t242 86.5q110 0 186 -44l50 73h95l-84 -123q79 -85 79 -241v-106zM376 667q-50 0 -90.5 -13.5t-69 -42.5t-44 -75.5t-15.5 -113.5v-94q0 -51 8.5 -89t25.5 -67
l314 463q-51 32 -129 32zM595 422q0 50 -8.5 88t-25.5 67l-315 -463q26 -17 59 -24t71 -7q50 0 90.5 13t69 42.5t44 76t15.5 113.5v94zM401 938h130l-113 -134h-105z" />
    <glyph glyph-name="oslashacute" unicode="&#x1ff;" horiz-adv-x="599" 
d="M544 242q0 -121 -63.5 -186.5t-181.5 -65.5q-71 0 -124 25l-39 -58h-91l69 103q-29 32 -44 77.5t-15 104.5v70q0 121 63.5 186.5t180.5 65.5q77 0 132 -29l33 49h91l-65 -97q54 -66 54 -175v-70zM299 477q-65 0 -102.5 -38t-37.5 -127v-70q0 -56 15 -92l206 308
q-32 19 -81 19zM440 312q0 49 -12 82l-202 -302q15 -8 33.5 -11.5t39.5 -3.5q66 0 103.5 38t37.5 127v70zM322 740h130l-113 -134h-105z" />
    <glyph glyph-name="uni0200" unicode="&#x200;" horiz-adv-x="688" 
d="M678 0h-116l-75 211h-296l-74 -211h-107l275 750h103zM224 305h228l-69 195q-13 35 -23.5 67.5t-21.5 71.5q-11 -39 -22 -72t-23 -67zM303 806h-78l-73 134h97zM461 806h-77l-71 134h98z" />
    <glyph glyph-name="uni0201" unicode="&#x201;" horiz-adv-x="554" 
d="M486 0h-89l-10 45q-14 -8 -36 -18t-47 -18t-52 -13.5t-51 -5.5q-81 0 -118 39t-37 123v18q0 49 17.5 81t50 50.5t79 25.5t104.5 7h86v29q0 31 -4 52.5t-16 35.5t-34.5 20.5t-58.5 6.5q-33 0 -76.5 -8t-83.5 -22v86q45 16 89.5 23t87.5 7q64 0 103.5 -16.5t60.5 -44
t28 -63.5t7 -76v-364zM383 120v135h-85q-44 0 -72.5 -4.5t-45 -15t-23.5 -29t-7 -46.5v-14q0 -40 17 -55t51 -15q13 0 34.5 3t45 9t46.5 14t39 18zM276 606h-78l-73 134h97zM434 606h-77l-71 134h98z" />
    <glyph glyph-name="uni0202" unicode="&#x202;" horiz-adv-x="688" 
d="M678 0h-116l-75 211h-296l-74 -211h-107l275 750h103zM224 305h228l-69 195q-13 35 -23.5 67.5t-21.5 71.5q-11 -39 -22 -72t-23 -67zM338 944q32 0 57.5 -10.5t43.5 -29.5t28 -44t11 -54h-73q-5 29 -19.5 46.5t-47.5 17.5q-32 0 -47 -17.5t-20 -46.5h-73q2 29 12 54
t28 44t43 29.5t57 10.5z" />
    <glyph glyph-name="uni0203" unicode="&#x203;" horiz-adv-x="554" 
d="M486 0h-89l-10 45q-14 -8 -36 -18t-47 -18t-52 -13.5t-51 -5.5q-81 0 -118 39t-37 123v18q0 49 17.5 81t50 50.5t79 25.5t104.5 7h86v29q0 31 -4 52.5t-16 35.5t-34.5 20.5t-58.5 6.5q-33 0 -76.5 -8t-83.5 -22v86q45 16 89.5 23t87.5 7q64 0 103.5 -16.5t60.5 -44
t28 -63.5t7 -76v-364zM383 120v135h-85q-44 0 -72.5 -4.5t-45 -15t-23.5 -29t-7 -46.5v-14q0 -40 17 -55t51 -15q13 0 34.5 3t45 9t46.5 14t39 18zM283 744q32 0 57.5 -10.5t43.5 -29.5t28 -44t11 -54h-73q-5 29 -19.5 46.5t-47.5 17.5q-32 0 -47 -17.5t-20 -46.5h-73
q2 29 12 54t28 44t43 29.5t57 10.5z" />
    <glyph glyph-name="uni0204" unicode="&#x204;" horiz-adv-x="611" 
d="M557 750v-95h-371v-221h338v-93h-338v-246h385v-95h-491v750h477zM306 806h-78l-73 134h97zM464 806h-77l-71 134h98z" />
    <glyph glyph-name="uni0205" unicode="&#x205;" horiz-adv-x="576" 
d="M528 246h-371v-22q0 -33 6.5 -60.5t24 -46.5t49 -29.5t82.5 -10.5q32 0 74.5 5t82.5 19v-83q-35 -15 -80 -21.5t-81 -6.5q-68 0 -117.5 14.5t-81 45.5t-46.5 78t-15 113v62q0 69 17.5 118.5t49 81t74.5 46.5t94 15q55 0 99.5 -13.5t75 -45t47 -84t16.5 -129.5v-46z
M427 325v7q0 31 -7 57.5t-23 46.5t-42 31.5t-64 11.5q-36 0 -61.5 -11.5t-41.5 -31.5t-23.5 -46.5t-7.5 -57.5v-7h270zM265 606h-78l-73 134h97zM423 606h-77l-71 134h98z" />
    <glyph glyph-name="uni0206" unicode="&#x206;" horiz-adv-x="611" 
d="M557 750v-95h-371v-221h338v-93h-338v-246h385v-95h-491v750h477zM328 944q32 0 57.5 -10.5t43.5 -29.5t28 -44t11 -54h-73q-5 29 -19.5 46.5t-47.5 17.5q-32 0 -47 -17.5t-20 -46.5h-73q2 29 12 54t28 44t43 29.5t57 10.5z" />
    <glyph glyph-name="uni0207" unicode="&#x207;" horiz-adv-x="576" 
d="M528 246h-371v-22q0 -33 6.5 -60.5t24 -46.5t49 -29.5t82.5 -10.5q32 0 74.5 5t82.5 19v-83q-35 -15 -80 -21.5t-81 -6.5q-68 0 -117.5 14.5t-81 45.5t-46.5 78t-15 113v62q0 69 17.5 118.5t49 81t74.5 46.5t94 15q55 0 99.5 -13.5t75 -45t47 -84t16.5 -129.5v-46z
M427 325v7q0 31 -7 57.5t-23 46.5t-42 31.5t-64 11.5q-36 0 -61.5 -11.5t-41.5 -31.5t-23.5 -46.5t-7.5 -57.5v-7h270zM288 744q32 0 57.5 -10.5t43.5 -29.5t28 -44t11 -54h-73q-5 29 -19.5 46.5t-47.5 17.5q-32 0 -47 -17.5t-20 -46.5h-73q2 29 12 54t28 44t43 29.5
t57 10.5z" />
    <glyph glyph-name="uni0208" unicode="&#x208;" horiz-adv-x="266" 
d="M186 0h-106v750h106v-750zM100 806h-78l-73 134h97zM258 806h-77l-71 134h98z" />
    <glyph glyph-name="uni0209" unicode="&#x209;" horiz-adv-x="253" 
d="M178 0h-103v552h103v-552zM85 606h-78l-73 134h97zM243 606h-77l-71 134h98z" />
    <glyph glyph-name="uni020A" unicode="&#x20a;" horiz-adv-x="266" 
d="M186 0h-106v750h106v-750zM133 944q32 0 57.5 -10.5t43.5 -29.5t28 -44t11 -54h-73q-5 29 -19.5 46.5t-47.5 17.5q-32 0 -47 -17.5t-20 -46.5h-73q2 29 12 54t28 44t43 29.5t57 10.5z" />
    <glyph glyph-name="uni020B" unicode="&#x20b;" horiz-adv-x="253" 
d="M178 0h-103v552h103v-552zM127 744q32 0 57.5 -10.5t43.5 -29.5t28 -44t11 -54h-73q-5 29 -19.5 46.5t-47.5 17.5q-32 0 -47 -17.5t-20 -46.5h-73q2 29 12 54t28 44t43 29.5t57 10.5z" />
    <glyph glyph-name="uni020C" unicode="&#x20c;" horiz-adv-x="752" 
d="M702 323q0 -163 -84 -249t-242 -86t-242 86t-84 249v104q0 162 84 248.5t242 86.5t242 -86.5t84 -248.5v-104zM595 421q0 67 -15.5 113.5t-44 75.5t-69 42.5t-90.5 13.5t-90.5 -13.5t-69 -42.5t-44 -75.5t-15.5 -113.5v-92q0 -67 15.5 -113.5t44 -76t69 -42.5t90.5 -13
t90.5 13t69 42.5t44 76t15.5 113.5v92zM326 806h-78l-73 134h97zM484 806h-77l-71 134h98z" />
    <glyph glyph-name="uni020D" unicode="&#x20d;" horiz-adv-x="599" 
d="M544 242q0 -121 -63.5 -186.5t-181.5 -65.5q-117 0 -180.5 65.5t-63.5 186.5v70q0 121 63.5 186.5t180.5 65.5q118 0 181.5 -65.5t63.5 -186.5v-70zM440 312q0 89 -37.5 127t-103.5 38q-65 0 -102.5 -38t-37.5 -127v-70q0 -89 37.5 -127t102.5 -38q66 0 103.5 38
t37.5 127v70zM266 606h-78l-73 134h97zM424 606h-77l-71 134h98z" />
    <glyph glyph-name="uni020E" unicode="&#x20e;" horiz-adv-x="752" 
d="M702 323q0 -163 -84 -249t-242 -86t-242 86t-84 249v104q0 162 84 248.5t242 86.5t242 -86.5t84 -248.5v-104zM595 421q0 67 -15.5 113.5t-44 75.5t-69 42.5t-90.5 13.5t-90.5 -13.5t-69 -42.5t-44 -75.5t-15.5 -113.5v-92q0 -67 15.5 -113.5t44 -76t69 -42.5t90.5 -13
t90.5 13t69 42.5t44 76t15.5 113.5v92zM376 944q32 0 57.5 -10.5t43.5 -29.5t28 -44t11 -54h-73q-5 29 -19.5 46.5t-47.5 17.5q-32 0 -47 -17.5t-20 -46.5h-73q2 29 12 54t28 44t43 29.5t57 10.5z" />
    <glyph glyph-name="uni020F" unicode="&#x20f;" horiz-adv-x="599" 
d="M544 242q0 -121 -63.5 -186.5t-181.5 -65.5q-117 0 -180.5 65.5t-63.5 186.5v70q0 121 63.5 186.5t180.5 65.5q118 0 181.5 -65.5t63.5 -186.5v-70zM440 312q0 89 -37.5 127t-103.5 38q-65 0 -102.5 -38t-37.5 -127v-70q0 -89 37.5 -127t102.5 -38q66 0 103.5 38
t37.5 127v70zM300 744q32 0 57.5 -10.5t43.5 -29.5t28 -44t11 -54h-73q-5 29 -19.5 46.5t-47.5 17.5q-32 0 -47 -17.5t-20 -46.5h-73q2 29 12 54t28 44t43 29.5t57 10.5z" />
    <glyph glyph-name="uni0210" unicode="&#x210;" horiz-adv-x="674" 
d="M80 750h277q60 0 107 -7.5t80 -29.5t50.5 -62t17.5 -104v-38q0 -84 -30.5 -128t-94.5 -61l157 -320h-111l-150 306h-197v-306h-106v750zM186 657v-260h148q51 0 84 5t52.5 17t27.5 32.5t8 52.5v54q0 53 -32.5 76t-114.5 23h-173zM313 806h-78l-73 134h97zM471 806h-77
l-71 134h98z" />
    <glyph glyph-name="uni0211" unicode="&#x211;" horiz-adv-x="381" 
d="M361 564v-101q-47 -3 -95.5 -17t-87.5 -44v-402h-103v552h92l10 -56q30 23 75.5 44t108.5 24zM195 606h-78l-73 134h97zM353 606h-77l-71 134h98z" />
    <glyph glyph-name="uni0212" unicode="&#x212;" horiz-adv-x="674" 
d="M80 750h277q60 0 107 -7.5t80 -29.5t50.5 -62t17.5 -104v-38q0 -84 -30.5 -128t-94.5 -61l157 -320h-111l-150 306h-197v-306h-106v750zM186 657v-260h148q51 0 84 5t52.5 17t27.5 32.5t8 52.5v54q0 53 -32.5 76t-114.5 23h-173zM335 944q32 0 57.5 -10.5t43.5 -29.5
t28 -44t11 -54h-73q-5 29 -19.5 46.5t-47.5 17.5q-32 0 -47 -17.5t-20 -46.5h-73q2 29 12 54t28 44t43 29.5t57 10.5z" />
    <glyph glyph-name="uni0213" unicode="&#x213;" horiz-adv-x="381" 
d="M361 564v-101q-47 -3 -95.5 -17t-87.5 -44v-402h-103v552h92l10 -56q30 23 75.5 44t108.5 24zM213 744q32 0 57.5 -10.5t43.5 -29.5t28 -44t11 -54h-73q-5 29 -19.5 46.5t-47.5 17.5q-32 0 -47 -17.5t-20 -46.5h-73q2 29 12 54t28 44t43 29.5t57 10.5z" />
    <glyph glyph-name="uni0214" unicode="&#x214;" horiz-adv-x="739" 
d="M177 750v-466q0 -56 11.5 -94t34.5 -61t59 -32.5t86 -9.5q51 0 88 9.5t60.5 32.5t34.5 61t11 94v466h107v-472q0 -149 -72.5 -219.5t-228.5 -70.5q-155 0 -226.5 70t-71.5 220v472h107zM342 806h-78l-73 134h97zM500 806h-77l-71 134h98z" />
    <glyph glyph-name="uni0215" unicode="&#x215;" horiz-adv-x="597" 
d="M72 552h103v-372q0 -24 2.5 -43t11 -32t24 -19.5t41.5 -6.5q37 0 80 12.5t85 38.5v422h103v-552h-92l-10 45q-42 -24 -90 -39.5t-90 -15.5q-93 0 -130.5 41t-37.5 118v403zM271 606h-78l-73 134h97zM429 606h-77l-71 134h98z" />
    <glyph glyph-name="uni0216" unicode="&#x216;" horiz-adv-x="739" 
d="M177 750v-466q0 -56 11.5 -94t34.5 -61t59 -32.5t86 -9.5q51 0 88 9.5t60.5 32.5t34.5 61t11 94v466h107v-472q0 -149 -72.5 -219.5t-228.5 -70.5q-155 0 -226.5 70t-71.5 220v472h107zM369 944q32 0 57.5 -10.5t43.5 -29.5t28 -44t11 -54h-73q-5 29 -19.5 46.5
t-47.5 17.5q-32 0 -47 -17.5t-20 -46.5h-73q2 29 12 54t28 44t43 29.5t57 10.5z" />
    <glyph glyph-name="uni0217" unicode="&#x217;" horiz-adv-x="597" 
d="M72 552h103v-372q0 -24 2.5 -43t11 -32t24 -19.5t41.5 -6.5q37 0 80 12.5t85 38.5v422h103v-552h-92l-10 45q-42 -24 -90 -39.5t-90 -15.5q-93 0 -130.5 41t-37.5 118v403zM300 744q32 0 57.5 -10.5t43.5 -29.5t28 -44t11 -54h-73q-5 29 -19.5 46.5t-47.5 17.5
q-32 0 -47 -17.5t-20 -46.5h-73q2 29 12 54t28 44t43 29.5t57 10.5z" />
    <glyph glyph-name="uni0218" unicode="&#x218;" horiz-adv-x="603" 
d="M563 206q0 -46 -12.5 -85.5t-42.5 -68.5t-81 -45.5t-128 -16.5q-63 0 -123 8t-126 31v96q75 -26 138.5 -33.5t106.5 -7.5q49 0 80 8t49 23t25 36.5t7 47.5q0 25 -4 43.5t-17.5 32.5t-38.5 25.5t-67 22.5l-92 23q-47 12 -81.5 28.5t-57 41t-33.5 58t-11 79.5q0 51 14 90
t44.5 65t79.5 39t119 13q58 0 113.5 -6t90.5 -19v-88q-42 11 -91.5 15.5t-91.5 4.5q-54 0 -87.5 -6.5t-52 -20t-25.5 -35t-7 -52.5q0 -25 5 -42.5t18 -30.5t33.5 -22t52.5 -17l91 -23q68 -17 108.5 -37.5t61.5 -46t27 -57t6 -71.5zM266 -56h116l-64 -177h-91z" />
    <glyph glyph-name="uni0219" unicode="&#x219;" horiz-adv-x="484" 
d="M446 153q0 -35 -9.5 -64.5t-33 -51.5t-62.5 -34.5t-98 -12.5q-41 0 -93.5 7.5t-97.5 25.5v87q55 -21 104 -27.5t81 -6.5q62 0 85 18t23 54q0 18 -1.5 31t-10.5 22t-27 16.5t-51 15.5l-41 10q-45 11 -75.5 24.5t-49 32.5t-26.5 44t-8 58q0 76 46.5 119t154.5 43
q45 0 83.5 -5t66.5 -15v-84q-30 9 -67.5 14t-67.5 5q-34 0 -56 -3.5t-35.5 -12t-19 -22t-5.5 -33.5q0 -19 3.5 -31.5t13 -20.5t26.5 -14.5t44 -13.5l41 -10q51 -12 83 -26t49.5 -33t24 -45t6.5 -61zM207 -56h116l-64 -177h-91z" />
    <glyph glyph-name="uni021A" unicode="&#x21a;" horiz-adv-x="622" 
d="M20 654v96h582v-96h-238v-654h-106v654h-238zM252 -56h116l-64 -177h-91z" />
    <glyph glyph-name="uni021B" unicode="&#x21b;" horiz-adv-x="403" 
d="M361 465h-147v-311q0 -39 11 -56.5t43 -17.5q24 0 48.5 4t44.5 13v-83q-20 -13 -52 -18.5t-63 -5.5q-72 0 -103.5 33.5t-31.5 99.5v342h-91v87h91v114l103 30v-144h147v-87zM159 -56h116l-64 -177h-91z" />
    <glyph glyph-name="uni021C" unicode="&#x21c;" horiz-adv-x="565" 
d="M154 351v92l108 10q69 6 104 31t35 86q0 30 -11.5 49t-33.5 30t-53.5 15t-70.5 4q-42 0 -89 -6.5t-92 -22.5v92q38 14 88.5 22.5t97.5 8.5q131 0 200.5 -46.5t69.5 -145.5q0 -47 -16.5 -88.5t-62.5 -71.5q30 -12 50.5 -30t32.5 -39t16.5 -44t4.5 -45q-1 -63 -27.5 -107.5
t-70 -75t-98 -48t-111 -28t-110.5 -15t-95 -7.5v101q79 6 152 15t129.5 28t90.5 52t34 87t-26.5 81t-76.5 35q-29 -6 -63 -9z" />
    <glyph glyph-name="uni021D" unicode="&#x21d;" horiz-adv-x="565" 
d="M161 152v86l102 11q69 8 106 35t37 88q0 59 -46.5 81t-125.5 22q-37 0 -85.5 -6.5t-93.5 -22.5v87q38 14 87.5 22.5t96.5 8.5q131 0 199.5 -46.5t68.5 -145.5q0 -47 -17 -88.5t-64 -71.5q31 -12 51.5 -29.5t33 -38.5t17 -44t4.5 -46q-1 -63 -27.5 -107.5t-69.5 -74
t-97.5 -47t-111 -27t-110.5 -14t-96 -7.5v96q81 6 155.5 15.5t131 28.5t90 52t33.5 87t-29 81t-81 35q-27 -6 -60 -9z" />
    <glyph glyph-name="uni021E" unicode="&#x21e;" horiz-adv-x="734" 
d="M412 796h-89l-100 148h82l63 -80l64 80h80zM654 750v-750h-106v341h-362v-341h-106v750h106v-313h362v313h106z" />
    <glyph glyph-name="uni021F" unicode="&#x21f;" horiz-adv-x="602" 
d="M374 796h-89l-100 148h82l63 -80l64 80h80zM530 0h-103v373q0 49 -14.5 75t-65.5 26q-40 0 -83.5 -13t-85.5 -35v-426h-103v744l103 30v-263q42 22 91 37.5t92 15.5q93 0 131 -41t38 -118v-405z" />
    <glyph glyph-name="uni0220" unicode="&#x220;" horiz-adv-x="754" 
d="M674 -216h-107v746q0 67 -27 102t-99 35q-35 0 -70.5 -8t-69 -20.5t-63 -28t-51.5 -29.5v-581h-107v750h96l10 -73q74 45 142 65t133 20q102 0 157.5 -54.5t55.5 -149.5v-774z" />
    <glyph glyph-name="uni0221" unicode="&#x221;" horiz-adv-x="719" 
d="M249 -10q-51 0 -87.5 15t-60 41.5t-34 62.5t-10.5 78v151q0 60 16 103t46 70t73 40t97 13q18 0 39 -2.5t41 -7t38 -11t30 -13.5v214l103 30v-657v-10.5t1 -10.5q22 11 45 18t47 7q54 0 80 -22.5t26 -64.5q0 -25 -10 -43t-26 -29.5t-37.5 -17t-43.5 -5.5q-42 0 -70.5 13
t-48.5 33q-35 -40 -59 -84h-81q17 38 43.5 74.5t60.5 68.5q-2 5 -4 15q-29 -20 -59 -33t-58 -21t-53 -11.5t-44 -3.5zM437 124v319q-13 8 -30 14t-34.5 10.5t-34.5 6.5t-30 2q-33 0 -60.5 -6t-46.5 -21.5t-29.5 -42t-10.5 -68.5v-133q0 -63 23.5 -94.5t80.5 -31.5
q38 0 82.5 9.5t89.5 35.5zM625 1q22 1 35.5 8t13.5 22q0 11 -7 20.5t-34 9.5q-18 0 -36.5 -7t-36.5 -19q10 -16 26 -25.5t39 -8.5z" />
    <glyph glyph-name="uni0222" unicode="&#x222;" horiz-adv-x="645" 
d="M297 341l-21 -8q-33 -13 -57 -26t-39.5 -28.5t-23.5 -35t-8 -44.5q0 -53 41.5 -86t132.5 -33q90 0 131 33t41 86q0 49 -33.5 82.5t-117.5 50.5zM378 762q103 -9 153.5 -62.5t50.5 -134.5q0 -63 -32.5 -109.5t-93.5 -72.5q79 -25 113 -74.5t34 -110.5q0 -47 -19 -85.5
t-55 -66.5t-88 -43t-119 -15q-75 0 -128 15.5t-87 43t-49.5 66t-15.5 83.5q0 57 35 106t113 75q-63 22 -95 72t-32 113q0 40 13.5 75t39.5 61t64 42.5t87 21.5v-93q-54 -10 -76 -42t-22 -72q0 -46 25 -75t88 -43l69 -16l40 19q43 20 63.5 47.5t20.5 67.5q0 22 -4 41
t-14.5 34t-29.5 25t-49 14v93z" />
    <glyph glyph-name="uni0223" unicode="&#x223;" horiz-adv-x="597" 
d="M280 356l-20 -8q-65 -26 -93 -60.5t-28 -85.5q0 -26 8 -49.5t27 -41.5t49.5 -28.5t74.5 -10.5q43 0 73.5 10.5t50 28.5t28 41.5t8.5 49.5q0 49 -32.5 85.5t-113.5 59.5zM356 774q49 -4 83.5 -20.5t56.5 -42t32 -59t10 -72.5q0 -60 -32.5 -110.5t-94.5 -78.5
q37 -12 64.5 -31.5t45 -43.5t26 -51.5t8.5 -55.5q0 -45 -13.5 -84.5t-43.5 -69.5t-77.5 -47.5t-116.5 -17.5q-77 0 -127.5 17.5t-80.5 47.5t-42 69.5t-12 82.5q0 27 8.5 54t26.5 51t45 44t64 32q-61 26 -94 78t-33 112q0 80 47 133.5t135 62.5v-81q-42 -10 -64 -42t-22 -72
q0 -49 26.5 -84.5t85.5 -53.5l52 -16l38 18q41 19 63.5 52.5t22.5 82.5q0 21 -3.5 39.5t-13.5 33.5t-26.5 26t-43.5 16v81z" />
    <glyph glyph-name="uni0224" unicode="&#x224;" horiz-adv-x="608" 
d="M194 158q-11 -15 -25.5 -34t-27.5 -35h443v-88q0 -89 -35 -132t-114 -43q-56 0 -93 12v91q14 -4 31.5 -7t39.5 -3q32 0 47.5 18.5t17.5 62.5h-458v80l378 512q11 16 25.5 34.5t27.5 34.5h-416v89h537v-80z" />
    <glyph glyph-name="uni0225" unicode="&#x225;" horiz-adv-x="492" 
d="M453 473l-243 -317q-11 -15 -25.5 -32.5t-31.5 -37.5h314v-86q-1 -88 -36 -131t-113 -43q-56 0 -93 12v84q14 -4 31.5 -7t39.5 -3q34 0 51 19.5t17 67.5v1h-329v79l243 318l54 69h-286v86h407v-79z" />
    <glyph glyph-name="uni0226" unicode="&#x226;" horiz-adv-x="688" 
d="M678 0h-116l-75 211h-296l-74 -211h-107l275 750h103zM224 305h228l-69 195q-13 35 -23.5 67.5t-21.5 71.5q-11 -39 -22 -72t-23 -67zM289 918h98v-106h-98v106z" />
    <glyph glyph-name="uni0227" unicode="&#x227;" horiz-adv-x="554" 
d="M486 0h-89l-10 45q-14 -8 -36 -18t-47 -18t-52 -13.5t-51 -5.5q-81 0 -118 39t-37 123v18q0 49 17.5 81t50 50.5t79 25.5t104.5 7h86v29q0 31 -4 52.5t-16 35.5t-34.5 20.5t-58.5 6.5q-33 0 -76.5 -8t-83.5 -22v86q45 16 89.5 23t87.5 7q64 0 103.5 -16.5t60.5 -44
t28 -63.5t7 -76v-364zM383 120v135h-85q-44 0 -72.5 -4.5t-45 -15t-23.5 -29t-7 -46.5v-14q0 -40 17 -55t51 -15q13 0 34.5 3t45 9t46.5 14t39 18zM237 718h98v-106h-98v106z" />
    <glyph glyph-name="uni0228" unicode="&#x228;" horiz-adv-x="611" 
d="M324 -263q-40 0 -81 7v70q15 -2 32 -3t36 -1q40 0 54.5 12t14.5 26v8q0 20 -17 30t-63 10h-19v104h-201v750h477v-95h-371v-221h338v-93h-338v-246h385v-95h-202v-55q33 -3 54.5 -10t34 -19t17.5 -28t5 -36v-8q0 -31 -12.5 -51.5t-33.5 -33t-49.5 -17.5t-60.5 -5z" />
    <glyph glyph-name="uni0229" unicode="&#x229;" horiz-adv-x="576" 
d="M287 -263q-40 0 -81 7v70q15 -2 32 -3t36 -1q40 0 54.5 12t14.5 26v8q0 20 -17 30t-63 10h-19v99q-99 13 -144 73t-45 173v62q0 69 17.5 118.5t49 81t74.5 46.5t94 15q55 0 99.5 -13.5t75 -45t47 -84t16.5 -129.5v-46h-371v-22q0 -33 6.5 -60.5t24 -46.5t49 -29.5
t82.5 -10.5q32 0 74.5 5t82.5 19v-83q-32 -14 -70.5 -20t-73.5 -8v-45q33 -3 54.5 -10t34 -19t17.5 -28t5 -36v-8q0 -31 -12.5 -51.5t-33.5 -33t-49.5 -17.5t-60.5 -5zM427 325v7q0 31 -7 57.5t-23 46.5t-42 31.5t-64 11.5q-36 0 -61.5 -11.5t-41.5 -31.5t-23.5 -46.5
t-7.5 -57.5v-7h270z" />
    <glyph glyph-name="uni022A" unicode="&#x22a;" horiz-adv-x="752" 
d="M702 323q0 -163 -84 -249t-242 -86t-242 86t-84 249v104q0 162 84 248.5t242 86.5t242 -86.5t84 -248.5v-104zM595 421q0 67 -15.5 113.5t-44 75.5t-69 42.5t-90.5 13.5t-90.5 -13.5t-69 -42.5t-44 -75.5t-15.5 -113.5v-92q0 -67 15.5 -113.5t44 -76t69 -42.5t90.5 -13
t90.5 13t69 42.5t44 76t15.5 113.5v92zM237 898h96v-106h-96v106zM420 898h96v-106h-96v106zM231 1030h292v-80h-292v80z" />
    <glyph glyph-name="uni022B" unicode="&#x22b;" horiz-adv-x="599" 
d="M544 242q0 -121 -63.5 -186.5t-181.5 -65.5q-117 0 -180.5 65.5t-63.5 186.5v70q0 121 63.5 186.5t180.5 65.5q118 0 181.5 -65.5t63.5 -186.5v-70zM440 312q0 89 -37.5 127t-103.5 38q-65 0 -102.5 -38t-37.5 -127v-70q0 -89 37.5 -127t102.5 -38q66 0 103.5 38
t37.5 127v70zM153 820h292v-80h-292v80zM159 698h96v-106h-96v106zM342 698h96v-106h-96v106z" />
    <glyph glyph-name="uni022C" unicode="&#x22c;" horiz-adv-x="752" 
d="M702 323q0 -163 -84 -249t-242 -86t-242 86t-84 249v104q0 162 84 248.5t242 86.5t242 -86.5t84 -248.5v-104zM595 421q0 67 -15.5 113.5t-44 75.5t-69 42.5t-90.5 13.5t-90.5 -13.5t-69 -42.5t-44 -75.5t-15.5 -113.5v-92q0 -67 15.5 -113.5t44 -76t69 -42.5t90.5 -13
t90.5 13t69 42.5t44 76t15.5 113.5v92zM436 790q-24 0 -39.5 8.5t-27.5 19t-22.5 19t-23.5 8.5q-17 0 -26 -17.5t-12 -35.5h-75q3 22 9.5 45.5t18.5 42t30.5 30.5t45.5 12q25 0 42 -8.5t29.5 -19t23 -19t22.5 -8.5q19 0 26 18.5t9 36.5h75q-2 -21 -8 -44t-18 -42.5
t-31 -32.5t-48 -13zM230 1030h292v-80h-292v80z" />
    <glyph glyph-name="uni022D" unicode="&#x22d;" horiz-adv-x="599" 
d="M544 242q0 -121 -63.5 -186.5t-181.5 -65.5q-117 0 -180.5 65.5t-63.5 186.5v70q0 121 63.5 186.5t180.5 65.5q118 0 181.5 -65.5t63.5 -186.5v-70zM440 312q0 89 -37.5 127t-103.5 38q-65 0 -102.5 -38t-37.5 -127v-70q0 -89 37.5 -127t102.5 -38q66 0 103.5 38
t37.5 127v70zM360 582q-24 0 -39.5 8.5t-27.5 19t-22.5 19t-23.5 8.5q-17 0 -26 -17.5t-12 -35.5h-75q3 22 9.5 45.5t18.5 42t30.5 30.5t45.5 12q25 0 42 -8.5t29.5 -19t23 -19t22.5 -8.5q19 0 26 18.5t9 36.5h75q-2 -21 -8 -44t-18 -42.5t-31 -32.5t-48 -13zM153 820h292
v-80h-292v80z" />
    <glyph glyph-name="uni022E" unicode="&#x22e;" horiz-adv-x="752" 
d="M702 323q0 -163 -84 -249t-242 -86t-242 86t-84 249v104q0 162 84 248.5t242 86.5t242 -86.5t84 -248.5v-104zM595 421q0 67 -15.5 113.5t-44 75.5t-69 42.5t-90.5 13.5t-90.5 -13.5t-69 -42.5t-44 -75.5t-15.5 -113.5v-92q0 -67 15.5 -113.5t44 -76t69 -42.5t90.5 -13
t90.5 13t69 42.5t44 76t15.5 113.5v92zM327 918h98v-106h-98v106z" />
    <glyph glyph-name="uni022F" unicode="&#x22f;" horiz-adv-x="599" 
d="M544 242q0 -121 -63.5 -186.5t-181.5 -65.5q-117 0 -180.5 65.5t-63.5 186.5v70q0 121 63.5 186.5t180.5 65.5q118 0 181.5 -65.5t63.5 -186.5v-70zM440 312q0 89 -37.5 127t-103.5 38q-65 0 -102.5 -38t-37.5 -127v-70q0 -89 37.5 -127t102.5 -38q66 0 103.5 38
t37.5 127v70zM251 718h98v-106h-98v106z" />
    <glyph glyph-name="uni0230" unicode="&#x230;" horiz-adv-x="752" 
d="M702 323q0 -163 -84 -249t-242 -86t-242 86t-84 249v104q0 162 84 248.5t242 86.5t242 -86.5t84 -248.5v-104zM595 421q0 67 -15.5 113.5t-44 75.5t-69 42.5t-90.5 13.5t-90.5 -13.5t-69 -42.5t-44 -75.5t-15.5 -113.5v-92q0 -67 15.5 -113.5t44 -76t69 -42.5t90.5 -13
t90.5 13t69 42.5t44 76t15.5 113.5v92zM327 908h98v-106h-98v106zM230 1030h292v-80h-292v80z" />
    <glyph glyph-name="uni0231" unicode="&#x231;" horiz-adv-x="599" 
d="M544 242q0 -121 -63.5 -186.5t-181.5 -65.5q-117 0 -180.5 65.5t-63.5 186.5v70q0 121 63.5 186.5t180.5 65.5q118 0 181.5 -65.5t63.5 -186.5v-70zM440 312q0 89 -37.5 127t-103.5 38q-65 0 -102.5 -38t-37.5 -127v-70q0 -89 37.5 -127t102.5 -38q66 0 103.5 38
t37.5 127v70zM251 708h98v-106h-98v106zM154 820h292v-80h-292v80z" />
    <glyph glyph-name="uni0232" unicode="&#x232;" horiz-adv-x="604" 
d="M359 316v-316h-106v314l-247 436h117l114 -222q16 -31 36 -69.5t33 -70.5q5 16 13.5 34.5t17.5 37.5t18.5 36.5t16.5 31.5l113 222h113zM156 920h292v-80h-292v80z" />
    <glyph glyph-name="uni0233" unicode="&#x233;" horiz-adv-x="540" 
d="M530 552l-286 -768h-103l79 217l-210 551h112l120 -346q7 -19 16 -49t15 -65h1q6 31 14.5 63.5t15.5 50.5l122 346h104zM124 720h292v-80h-292v80z" />
    <glyph glyph-name="uni0234" unicode="&#x234;" horiz-adv-x="381" 
d="M211 203q22 3 47 3q39 0 66 -9t44.5 -24t25 -34.5t7.5 -41.5q0 -50 -37 -79.5t-94 -29.5q-36 0 -62 7.5t-44.5 21t-29.5 31.5t-17 39q-16 -16 -29 -37t-22 -50h-86q20 57 51.5 99.5t76.5 68.5v576l103 30v-571zM256 140q-20 0 -45 -5q2 -35 15 -53.5t47 -18.5
q27 0 38.5 11.5t11.5 26.5q0 17 -13.5 28t-53.5 11z" />
    <glyph glyph-name="uni0235" unicode="&#x235;" horiz-adv-x="692" 
d="M522 203q22 3 47 3q39 0 66 -9t44.5 -24t25 -34.5t7.5 -41.5q0 -50 -37 -79.5t-94 -29.5q-36 0 -62 7.5t-44.5 21t-29.5 31.5t-17 39q-16 -16 -29 -37t-22 -50h-86q20 57 51.5 99.5t76.5 68.5v205q0 24 -2.5 43t-10 32t-23 19.5t-40.5 6.5q-37 0 -80 -12.5t-85 -38.5
v-423h-103v552h92l10 -43q42 24 90 39.5t90 15.5q46 0 78 -10.5t51 -31t27.5 -50t8.5 -67.5v-202zM567 140q-20 0 -45 -5q2 -35 15 -53.5t47 -18.5q27 0 38.5 11.5t11.5 26.5q0 17 -13.5 28t-53.5 11z" />
    <glyph glyph-name="uni0236" unicode="&#x236;" horiz-adv-x="421" 
d="M86 0h-86q20 57 51.5 99.5t76.5 68.5v297h-91v87h91v114l103 30v-144h147v-87h-147v-262q22 3 47 3q39 0 66 -9t44.5 -24t25 -34.5t7.5 -41.5q0 -50 -37 -79.5t-94 -29.5q-36 0 -62 7.5t-44.5 21t-29.5 31.5t-17 39q-16 -16 -29 -37t-22 -50zM293 63q27 0 38.5 11.5
t11.5 26.5q0 17 -13.5 28t-53.5 11q-20 0 -45 -5q2 -35 15 -53.5t47 -18.5z" />
    <glyph glyph-name="uni0237" unicode="&#x237;" horiz-adv-x="258" 
d="M183 552v-616q0 -43 -7 -73t-23 -49t-43 -28t-66 -9q-9 0 -22 0.5t-26.5 1.5t-26.5 3t-23 5v85q19 -3 38 -4.5t42 -1.5q35 0 44.5 16.5t9.5 57.5v612h103z" />
    <glyph glyph-name="uni0238" unicode="&#x238;" horiz-adv-x="977" 
d="M249 -10q-51 0 -87.5 15t-60 41.5t-34 62.5t-10.5 78v151q0 60 16 103t46 70t73 40t97 13q18 0 39 -2.5t41 -7t38 -11t30 -13.5v214l103 30v-263q33 19 83.5 36t104.5 17q49 0 85 -15.5t60 -42.5t35.5 -63t11.5 -78v-142q0 -54 -12 -97.5t-38.5 -73.5t-68.5 -46.5
t-101 -16.5q-35 0 -82 11t-87 40l-6 -40h-78l-10 43q-21 -13 -46 -23t-50 -16.5t-49 -10t-43 -3.5zM437 124v319q-13 8 -30 14t-34.5 10.5t-34.5 6.5t-30 2q-33 0 -60.5 -6t-46.5 -21.5t-29.5 -42t-10.5 -68.5v-133q0 -63 23.5 -94.5t80.5 -31.5q38 0 82.5 9.5t89.5 35.5z
M540 426v-306q32 -22 71.5 -32.5t74.5 -10.5q73 0 101.5 39.5t28.5 120.5v97q0 70 -23 105t-88 35q-45 0 -89 -15t-76 -33z" />
    <glyph glyph-name="uni0239" unicode="&#x239;" horiz-adv-x="977" 
d="M437 -216v248q-36 -20 -86 -31t-100 -11q-54 0 -91 15.5t-60 43t-33 64.5t-10 80v143q0 118 60.5 173t162.5 55q20 0 43.5 -3.5t45.5 -9.5t40.5 -15t30.5 -21l8 37h81l10 -44q38 23 86.5 39.5t102.5 16.5q50 0 86 -16t59.5 -43t35 -63t11.5 -76v-146q0 -119 -60 -174.5
t-178 -55.5q-13 0 -31.5 1.5t-38 5t-38.5 8t-34 10.5v-231h-103zM437 114v316q-21 19 -62.5 32.5t-86.5 13.5q-26 0 -49.5 -6.5t-40.5 -22t-27 -42.5t-10 -69v-126q0 -67 23 -99t86 -32q42 0 85.5 8.5t81.5 26.5zM540 422v-322q30 -11 67.5 -17t66.5 -6q48 0 76 13t42.5 35
t19 49.5t4.5 56.5v104q0 33 -4.5 59t-17 43.5t-34 27t-55.5 9.5q-39 0 -84 -15t-81 -37z" />
    <glyph glyph-name="uni023A" unicode="&#x23a;" horiz-adv-x="688" 
d="M678 0h-116l-75 211h-145l-121 -254h-80l121 254h-71l-74 -211h-107l275 750h103l59 -154l94 196h80l-138 -288zM224 305h83l83 173l-7 22q-13 35 -23.5 67.5t-21.5 71.5q-11 -39 -22 -72t-23 -67zM452 305l-28 77l-37 -77h65z" />
    <glyph glyph-name="uni023B" unicode="&#x23b;" horiz-adv-x="621" 
d="M570 647q-12 4 -28 7t-34 6l-264 -551q26 -13 61.5 -19.5t85.5 -6.5q40 0 89.5 4.5t100.5 20.5v-89q-22 -9 -48 -15t-52 -9.5t-51 -5t-45 -1.5q-114 0 -186 27l-28 -58h-80l45 94q-45 38 -64.5 101t-19.5 157v122q0 94 21 157.5t62.5 102t103.5 55t145 16.5
q23 0 45.5 -1.5t44.5 -3.5l17 35h80l-23 -48l22 -7v-90zM392 668q-79 0 -125 -18t-70 -48.5t-31 -71.5t-7 -86v-131q0 -45 4.5 -84.5t23.5 -70.5l244 509q-10 1 -20 1h-19z" />
    <glyph glyph-name="uni023C" unicode="&#x23c;" horiz-adv-x="516" 
d="M458 541v-84q-28 9 -70 14l-177 -368q18 -12 44 -18t64 -6q33 0 71 5t78 19v-86q-34 -16 -77.5 -22t-78.5 -6q-85 0 -144 25l-27 -57h-76l46 97q-56 60 -56 187v62q0 139 66.5 200t189.5 61q11 0 22 -0.5t22 -1.5l25 52h76l-30 -63q8 -2 16 -4.5t16 -5.5zM159 314v-76
q0 -41 7 -70l147 308q-47 -1 -77 -14t-47 -35t-23.5 -51t-6.5 -62z" />
    <glyph glyph-name="uni023D" unicode="&#x23d;" horiz-adv-x="583" 
d="M186 750v-303h156v-88h-156v-261h367v-98h-473v359h-100v88h100v303h106z" />
    <glyph glyph-name="uni023E" unicode="&#x23e;" horiz-adv-x="622" 
d="M91 -43l167 348v349h-238v96h451l20 42h80l-20 -42h51v-96h-97l-141 -294v-360h-106v138l-87 -181h-80zM364 526l61 128h-61v-128z" />
    <glyph glyph-name="uni023F" unicode="&#x23f;" horiz-adv-x="484" 
d="M49 94q1 0 1.5 -0.5t1.5 -0.5v17q55 -21 104 -27.5t81 -6.5q62 0 85 18t23 54q0 18 -1.5 31t-10.5 22t-27 16.5t-51 15.5l-41 10q-45 11 -75.5 24.5t-49 32.5t-26.5 44t-8 58q0 76 46.5 119t154.5 43q45 0 83.5 -5t66.5 -15v-84q-30 9 -67.5 14t-67.5 5q-34 0 -56 -3.5
t-35.5 -12t-19 -22t-5.5 -33.5q0 -19 3.5 -31.5t13 -20.5t26.5 -14.5t44 -13.5l41 -10q51 -12 83 -26t49.5 -33t24 -45t6.5 -61t-9.5 -64.5t-33 -51.5t-62.5 -34.5t-98 -12.5h-5q49 -41 97.5 -58.5t112.5 -16.5v-88q-31 0 -63.5 2t-66.5 11.5t-68.5 29t-68.5 54.5
q-29 29 -50.5 46.5t-38.5 28t-29.5 15.5l-22.5 9z" />
    <glyph glyph-name="uni0240" unicode="&#x240;" horiz-adv-x="492" 
d="M453 473l-243 -317q-18 -24 -36 -44.5t-44 -45.5q11 -3 20 -7t21 -11.5t29 -19t44 -29.5q22 -15 48.5 -30t55.5 -26.5t61.5 -17.5t66.5 -4v-94q-68 -5 -140 19.5t-164 90.5q-42 29 -80.5 45.5t-56.5 17.5v79l297 387h-286v86h407v-79z" />
    <glyph glyph-name="uni0241" unicode="&#x241;" horiz-adv-x="517" 
d="M183 0v200q0 37 6.5 67.5t20.5 57t37 50.5t55 50q21 16 35 30t22.5 28.5t12 31.5t3.5 41q0 30 -6.5 50.5t-22.5 33t-43 18.5t-69 6q-51 0 -99.5 -12t-90.5 -29v92q35 16 86 29t108 13q67 0 113 -13.5t74 -39.5t40 -63t12 -85q0 -45 -10 -76t-25.5 -53.5t-34 -38.5
t-35.5 -30q-26 -22 -42.5 -40t-26.5 -35.5t-13.5 -37.5t-3.5 -47v-198h-103z" />
    <glyph glyph-name="uni0242" unicode="&#x242;" horiz-adv-x="457" 
d="M173 0v100q0 34 4 57.5t14 42t28 37t47 42.5q18 15 29.5 25.5t17.5 22t8.5 26t2.5 38.5q0 46 -25.5 63.5t-87.5 17.5q-44 0 -87.5 -11.5t-79.5 -28.5v87q30 16 75.5 28.5t89.5 12.5q58 0 97.5 -11t64 -32t35.5 -53t11 -74t-6 -67.5t-17 -43t-26.5 -31t-34.5 -31.5
q-23 -21 -36 -34.5t-19.5 -25.5t-8 -25.5t-1.5 -33.5v-98h-95z" />
    <glyph glyph-name="uni0243" unicode="&#x243;" horiz-adv-x="657" 
d="M80 750h251q57 0 103 -7t78.5 -26t49.5 -53t17 -88v-38q0 -22 -4 -43.5t-14.5 -40.5t-28.5 -34.5t-47 -24.5q64 -13 93 -50t29 -91v-77q0 -54 -16 -88.5t-49.5 -54t-85 -27t-122.5 -7.5h-254v170h-90v88h90v492zM186 347v-89h156v-88h-156v-80h153q51 0 82.5 4.5t49 16
t24 31.5t6.5 50v52q0 56 -31.5 79.5t-114.5 23.5h-169zM186 660v-229h159q28 0 51.5 3.5t41 14t27 30.5t9.5 53v41q0 28 -6.5 45t-23 26.5t-44 12.5t-68.5 3h-146z" />
    <glyph glyph-name="uni0244" unicode="&#x244;" horiz-adv-x="739" 
d="M177 750v-303h385v303h107v-303h80v-88h-80v-81q0 -149 -72.5 -219.5t-228.5 -70.5q-155 0 -226.5 70t-71.5 220v81h-80v88h80v303h107zM368 87q51 0 88 9.5t60.5 32.5t34.5 61t11 94v75h-385v-75q0 -56 11.5 -94t34.5 -61t59 -32.5t86 -9.5z" />
    <glyph glyph-name="uni0245" unicode="&#x245;" horiz-adv-x="681" 
d="M560 0l-171 474q-14 37 -27.5 73.5t-24.5 79.5q-10 -42 -22 -79t-26 -74l-173 -474h-110l279 750h105l285 -750h-115z" />
    <glyph glyph-name="uni0246" unicode="&#x246;" horiz-adv-x="611" 
d="M451 750l20 42h80l-20 -42h26v-95h-72l-106 -221h145v-93h-189l-118 -246h354v-95h-400l-20 -43h-80l20 43h-11v750h371zM186 434h113l106 221h-219v-221zM186 197l69 144h-69v-144z" />
    <glyph glyph-name="uni0247" unicode="&#x247;" horiz-adv-x="576" 
d="M528 246h-209l-77 -161q16 -4 35 -6t42 -2q32 0 74.5 5t82.5 19v-83q-35 -15 -80 -21.5t-81 -6.5q-67 0 -112 13l-22 -46h-76l35 74q-85 57 -85 210v62q0 69 17.5 118.5t49 81t74.5 46.5t94 15q58 0 99 -14l31 64h76l-46 -96q38 -30 58 -85t20 -141v-46zM291 479
q-36 0 -61.5 -11.5t-41.5 -31.5t-23.5 -46.5t-7.5 -57.5v-7h124l69 144q-12 5 -27 7.5t-32 2.5zM157 224q0 -32 5.5 -57.5t21.5 -45.5l59 125h-86v-22zM427 325v7q0 55 -22 92l-48 -99h70z" />
    <glyph glyph-name="uni0248" unicode="&#x248;" horiz-adv-x="406" 
d="M330 750v-303h86v-88h-86v-170q0 -51 -10 -88t-33.5 -62t-63 -37t-97.5 -12q-28 0 -62 5t-54 13v94q32 -10 61.5 -13t52.5 -3q51 0 75.5 23.5t24.5 85.5v164h-160v88h160v303h106z" />
    <glyph glyph-name="uni0249" unicode="&#x249;" horiz-adv-x="292" 
d="M199 552v-195h103v-88h-103v-333q0 -43 -7 -73t-23 -49t-43 -28t-66 -9q-9 0 -22 0.5t-26.5 1.5t-26.5 3t-23 5v85q19 -3 38 -4.5t42 -1.5q35 0 44.5 16.5t9.5 57.5v329h-110v88h110v195h103zM199 655h-103v111h103v-111z" />
    <glyph glyph-name="uni024A" unicode="&#x24a;" horiz-adv-x="729" 
d="M641 747v-768q0 -59 13.5 -83t56.5 -24q15 0 25 1t18 2.5t15 4t15 5.5v-92q-23 -8 -43.5 -11.5t-57.5 -3.5q-42 0 -70.5 13t-45.5 39t-24 64.5t-7 89.5v65q-23 -13 -51 -23.5t-59 -18.5t-63.5 -12.5t-63.5 -4.5q-68 0 -114 19.5t-74.5 54t-41 80.5t-12.5 100v233
q0 148 70.5 216.5t198.5 68.5q25 0 55.5 -4t60.5 -12t55 -19.5t40 -26.5l10 47h94zM536 606q-14 13 -36 24.5t-48 20.5t-56 14t-61 5q-36 0 -67.5 -8t-55 -29t-36.5 -57.5t-13 -93.5v-223q0 -46 7 -79.5t24 -55t45 -32t70 -10.5q60 0 118.5 14t108.5 41v469z" />
    <glyph glyph-name="uni024B" unicode="&#x24b;" horiz-adv-x="655" 
d="M540 552v-604q0 -48 15 -66.5t49 -18.5q24 0 38.5 2.5t28.5 7.5v-84q-19 -6 -39 -9t-50 -3q-79 0 -112 42t-33 131v82q-36 -20 -86 -31t-100 -11q-54 0 -91 15.5t-60 43t-33 64.5t-10 80v143q0 118 60.5 173t162.5 55q20 0 43.5 -3.5t45.5 -9.5t40.5 -15t30.5 -21l8 37
h92zM437 114v316q-21 19 -62.5 32.5t-86.5 13.5q-26 0 -49.5 -6.5t-40.5 -22t-27 -42.5t-10 -69v-126q0 -67 23 -99t86 -32q42 0 85.5 8.5t81.5 26.5z" />
    <glyph glyph-name="uni024C" unicode="&#x24c;" horiz-adv-x="685" 
d="M91 750h277q60 0 107 -7.5t80 -29.5t50.5 -62t17.5 -104v-38q0 -84 -30.5 -128t-94.5 -61l157 -320h-111l-150 306h-197v-306h-106v307h-101v88h101v355zM197 657v-260h148q51 0 84 5t52.5 17t27.5 32.5t8 52.5v54q0 53 -32.5 76t-114.5 23h-173z" />
    <glyph glyph-name="uni024D" unicode="&#x24d;" horiz-adv-x="381" 
d="M361 564v-101q-47 -3 -95.5 -17t-87.5 -44v-65h124v-88h-124v-249h-103v249h-89v88h89v215h92l10 -56q30 23 75.5 44t108.5 24z" />
    <glyph glyph-name="uni024E" unicode="&#x24e;" horiz-adv-x="604" 
d="M543 651h71v-84h-117l-138 -251v-316h-106v314l-144 253h-119v84h72l-56 99h117l51 -99h260l51 99h113zM306 388q5 16 13.5 34.5t17.5 37.5t18.5 36.5t16.5 31.5l20 39h-175l20 -39q16 -31 36 -69.5t33 -70.5z" />
    <glyph glyph-name="uni024F" unicode="&#x24f;" horiz-adv-x="540" 
d="M530 552l-58 -154h73v-84h-104l-197 -530h-103l79 217l-120 313h-105v84h73l-58 154h112l53 -154h196l55 154h104zM242 206q7 -19 16 -49t15 -65h1q6 31 14.5 63.5t15.5 50.5l38 108h-138z" />
    <glyph glyph-name="gravecomb" unicode="&#x300;" 
d="M369 606h-108l-110 134h130z" />
    <glyph glyph-name="acutecomb" unicode="&#x301;" 
d="M292 740h130l-113 -134h-105z" />
    <glyph glyph-name="uni0302" unicode="&#x302;" 
d="M255 754h89l100 -148h-82l-63 80l-64 -80h-80z" />
    <glyph glyph-name="tildecomb" unicode="&#x303;" 
d="M360 608q-24 0 -39.5 8.5t-27.5 19t-22.5 19t-23.5 8.5q-17 0 -26 -17.5t-12 -35.5h-75q3 22 9.5 45.5t18.5 42t30.5 30.5t45.5 12q25 0 42 -8.5t29.5 -19t23 -19t22.5 -8.5q19 0 26 18.5t9 36.5h75q-2 -21 -8 -44t-18 -42.5t-31 -32.5t-48 -13z" />
    <glyph glyph-name="uni0304" unicode="&#x304;" 
d="M154 720h292v-80h-292v80z" />
    <glyph glyph-name="uni0306" unicode="&#x306;" 
d="M300 606q-32 0 -57 10.5t-43 29.5t-28 44t-12 54h73q5 -29 20 -46.5t47 -17.5q33 0 47.5 17.5t19.5 46.5h73q-1 -29 -11 -54t-28 -44t-43.5 -29.5t-57.5 -10.5z" />
    <glyph glyph-name="uni0307" unicode="&#x307;" 
d="M251 718h98v-106h-98v106z" />
    <glyph glyph-name="uni0308" unicode="&#x308;" 
d="M160 718h96v-106h-96v106zM343 718h96v-106h-96v106z" />
    <glyph glyph-name="hookabovecomb" unicode="&#x309;" 
d="M261 594v18q0 25 8.5 37t38.5 29q22 13 27.5 19.5t5.5 19.5q0 11 -8.5 16t-37.5 5q-20 0 -41.5 -4t-39.5 -11v59q16 7 37.5 11.5t45.5 4.5q58 0 85.5 -19.5t27.5 -55.5q0 -33 -14 -47t-28 -23q-25 -15 -32 -21t-7 -21v-17h-68z" />
    <glyph glyph-name="uni030A" unicode="&#x30a;" 
d="M299 644q23 0 36.5 13.5t13.5 36.5t-13.5 37t-36.5 14q-22 0 -35.5 -14t-13.5 -37t13.5 -36.5t35.5 -13.5zM299 589q-23 0 -43 8.5t-34.5 23t-22.5 33.5t-8 40t8 40t22.5 33.5t34.5 22.5t43 8q24 0 44 -8t34.5 -22.5t22.5 -33.5t8 -40t-8 -40t-22.5 -33.5t-34.5 -23
t-44 -8.5z" />
    <glyph glyph-name="uni030B" unicode="&#x30b;" 
d="M357 740h97l-71 -134h-75zM195 740h98l-71 -134h-77z" />
    <glyph glyph-name="uni030C" unicode="&#x30c;" 
d="M344 596h-89l-100 148h82l63 -80l64 80h80z" />
    <glyph glyph-name="uni030F" unicode="&#x30f;" 
d="M296 606h-78l-73 134h97zM454 606h-77l-71 134h98z" />
    <glyph glyph-name="uni0310" unicode="&#x310;" 
d="M300 606q-32 0 -57 10.5t-43 29.5t-28 44t-12 54h73q5 -29 20 -46.5t47 -17.5q33 0 47.5 17.5t19.5 46.5h73q-1 -29 -11 -54t-28 -44t-43.5 -29.5t-57.5 -10.5zM253 835h94v-101h-94v101z" />
    <glyph glyph-name="uni0311" unicode="&#x311;" 
d="M300 744q32 0 57.5 -10.5t43.5 -29.5t28 -44t11 -54h-73q-5 29 -19.5 46.5t-47.5 17.5q-32 0 -47 -17.5t-20 -46.5h-73q2 29 12 54t28 44t43 29.5t57 10.5z" />
    <glyph glyph-name="uni0316" unicode="&#x316;" 
d="M412 -208h-111l-113 134h136z" />
    <glyph glyph-name="uni0317" unicode="&#x317;" 
d="M276 -74h136l-113 -134h-111z" />
    <glyph glyph-name="dotbelowcomb" unicode="&#x323;" 
d="M251 -87h98v-106h-98v106z" />
    <glyph glyph-name="uni0324" unicode="&#x324;" 
d="M160 -87h96v-106h-96v106zM343 -87h96v-106h-96v106z" />
    <glyph glyph-name="uni0325" unicode="&#x325;" 
d="M299 -192q23 0 36.5 13.5t13.5 36.5t-13.5 37t-36.5 14q-22 0 -35.5 -14t-13.5 -37t13.5 -36.5t35.5 -13.5zM299 -247q-23 0 -43 8.5t-34.5 23t-22.5 33.5t-8 40t8 40t22.5 33.5t34.5 22.5t43 8q24 0 44 -8t34.5 -22.5t22.5 -33.5t8 -40t-8 -40t-22.5 -33.5t-34.5 -23
t-44 -8.5z" />
    <glyph glyph-name="uni0326" unicode="&#x326;" 
d="M264 -56h116l-64 -177h-91z" />
    <glyph glyph-name="uni0327" unicode="&#x327;" 
d="M295 -263q-40 0 -81 7v70q15 -2 32 -3t36 -1q40 0 54.5 12t14.5 26v8q0 20 -17 30t-63 10h-19v135h88v-86q33 -3 54.5 -10t34 -19t17.5 -28t5 -36v-8q0 -31 -12.5 -51.5t-33.5 -33t-49.5 -17.5t-60.5 -5z" />
    <glyph glyph-name="uni0328" unicode="&#x328;" 
d="M327 -223q-65 0 -100.5 27.5t-35.5 69.5v9q0 19 9.5 38t24.5 34.5t33.5 27.5t35.5 17h92q-41 -21 -65.5 -50t-24.5 -52v-8q0 -20 15 -28t42 -8q15 0 29.5 2t25.5 5v-73q-13 -4 -33 -7.5t-48 -3.5z" />
    <glyph glyph-name="uni032C" unicode="&#x32c;" 
d="M155 -67h80l64 -80l63 80h82l-100 -148h-89z" />
    <glyph glyph-name="uni032D" unicode="&#x32d;" 
d="M255 -70h89l100 -148h-82l-63 80l-64 -80h-80z" />
    <glyph glyph-name="uni032E" unicode="&#x32e;" 
d="M300 -210q-32 0 -57 10.5t-43 29.5t-28 44t-12 54h73q5 -29 20 -46.5t47 -17.5q33 0 47.5 17.5t19.5 46.5h73q-1 -29 -11 -54t-28 -44t-43.5 -29.5t-57.5 -10.5z" />
    <glyph glyph-name="uni032F" unicode="&#x32f;" 
d="M300 -75q32 0 57.5 -10.5t43.5 -29.5t28 -44t11 -54h-73q-5 29 -19.5 46.5t-47.5 17.5q-32 0 -47 -17.5t-20 -46.5h-73q2 29 12 54t28 44t43 29.5t57 10.5z" />
    <glyph glyph-name="uni0330" unicode="&#x330;" 
d="M360 -209q-24 0 -39.5 8.5t-27.5 19t-22.5 19t-23.5 8.5q-17 0 -26 -17.5t-12 -35.5h-75q3 22 9.5 45.5t18.5 42t30.5 30.5t45.5 12q25 0 42 -8.5t29.5 -19t23 -19t22.5 -8.5q19 0 26 18.5t9 36.5h75q-2 -21 -8 -44t-18 -42.5t-31 -32.5t-48 -13z" />
    <glyph glyph-name="uni0331" unicode="&#x331;" 
d="M147 -99h306v-80h-306v80z" />
    <glyph glyph-name="uni0340" unicode="&#x340;" 
d="M369 606h-108l-110 134h130z" />
    <glyph glyph-name="uni0341" unicode="&#x341;" 
d="M292 740h130l-113 -134h-105z" />
    <glyph glyph-name="uni0342" unicode="&#x342;" 
d="M360 608q-24 0 -39.5 8.5t-27.5 19t-22.5 19t-23.5 8.5q-17 0 -26 -17.5t-12 -35.5h-75q3 22 9.5 45.5t18.5 42t30.5 30.5t45.5 12q25 0 42 -8.5t29.5 -19t23 -19t22.5 -8.5q19 0 26 18.5t9 36.5h75q-2 -21 -8 -44t-18 -42.5t-31 -32.5t-48 -13z" />
    <glyph glyph-name="uni0400" unicode="&#x400;" horiz-adv-x="611" 
d="M557 750v-95h-371v-221h338v-93h-338v-246h385v-95h-491v750h477zM400 806h-105l-113 134h130z" />
    <glyph glyph-name="uni0401" unicode="&#x401;" 
d="M557 750v-95h-371v-221h338v-93h-338v-246h385v-95h-491v750h477zM191 918h96v-106h-96v106zM374 918h96v-106h-96v106z" />
    <glyph glyph-name="uni0402" unicode="&#x402;" horiz-adv-x="787" 
d="M618 257q0 25 -4 45.5t-14 35t-27.5 22t-44.5 7.5q-35 0 -80 -15.5t-83 -42.5v-309h-104v658h-229v92h590v-92h-257v-267q38 24 88.5 43t98.5 19q92 0 131 -45t39 -121v-316q0 -50 -5.5 -86.5t-21 -59.5t-43 -34t-71.5 -11q-55 0 -100 12v82q19 -4 36.5 -6t38.5 -2
q36 0 49 16t13 60v315z" />
    <glyph glyph-name="uni0403" unicode="&#x403;" horiz-adv-x="580" 
d="M336 946h113l-111 -140h-95zM557 750v-96h-372v-654h-105v750h477z" />
    <glyph glyph-name="uni0404" unicode="&#x404;" horiz-adv-x="629" 
d="M492 331h-329v-31q0 -50 10 -90.5t36 -69t70.5 -43.5t112.5 -15q45 0 93.5 5t96.5 21v-89q-23 -9 -50 -14.5t-54.5 -8.5t-52.5 -4.5t-44 -1.5q-90 0 -152 19t-100.5 58.5t-55.5 100.5t-17 145v122q0 89 20 151t60.5 101t101.5 56.5t142 17.5q56 0 106 -6.5t85 -18.5v-87
q-38 10 -83 15t-99 5q-62 0 -105 -13.5t-70 -41t-39 -69t-12 -97.5v-26h329v-91z" />
    <glyph glyph-name="uni0405" unicode="&#x405;" horiz-adv-x="603" 
d="M563 206q0 -46 -12.5 -85.5t-42.5 -68.5t-81 -45.5t-128 -16.5q-63 0 -123 8t-126 31v96q75 -26 138.5 -33.5t106.5 -7.5q49 0 80 8t49 23t25 36.5t7 47.5q0 25 -4 43.5t-17.5 32.5t-38.5 25.5t-67 22.5l-92 23q-47 12 -81.5 28.5t-57 41t-33.5 58t-11 79.5q0 51 14 90
t44.5 65t79.5 39t119 13q58 0 113.5 -6t90.5 -19v-88q-42 11 -91.5 15.5t-91.5 4.5q-54 0 -87.5 -6.5t-52 -20t-25.5 -35t-7 -52.5q0 -25 5 -42.5t18 -30.5t33.5 -22t52.5 -17l91 -23q68 -17 108.5 -37.5t61.5 -46t27 -57t6 -71.5z" />
    <glyph glyph-name="uni0406" unicode="&#x406;" horiz-adv-x="266" 
d="M186 0h-106v750h106v-750z" />
    <glyph glyph-name="uni0407" unicode="&#x407;" horiz-adv-x="266" 
d="M186 0h-106v750h106v-750zM-6 918h96v-106h-96v106zM177 918h96v-106h-96v106z" />
    <glyph glyph-name="uni0408" unicode="&#x408;" horiz-adv-x="406" 
d="M330 750v-561q0 -51 -10 -88t-33.5 -62t-63 -37t-97.5 -12q-28 0 -62 5t-54 13v94q32 -10 61.5 -13t52.5 -3q51 0 75.5 23.5t24.5 85.5v555h106z" />
    <glyph glyph-name="uni0409" unicode="&#x409;" horiz-adv-x="1074" 
d="M540 660h-253v-293q0 -93 -10.5 -161.5t-37.5 -114.5t-74.5 -68.5t-121.5 -22.5h-17v91h14q76 0 109.5 50.5t33.5 162.5v446h460v-256h116q69 0 120 -8t84 -28.5t49 -57t16 -93.5v-113q0 -62 -18 -100t-50 -59t-78 -28t-101 -7h-241v660zM770 79q41 0 70.5 5.5t48 19
t27 35.5t8.5 56v104q0 36 -8 58.5t-27.5 35.5t-52 17.5t-81.5 4.5h-112v-336h127z" />
    <glyph glyph-name="uni040A" unicode="&#x40a;" horiz-adv-x="1066" 
d="M635 750v-300h117q69 0 119.5 -8t84 -28.5t49.5 -56.5t16 -93v-70q0 -62 -18 -100t-50.5 -59t-78 -28t-101.5 -7h-241v358h-352v-358h-104v750h104v-299h352v299h103zM762 79q42 0 71 5.5t47.5 19t27 35.5t8.5 56v61q0 36 -8.5 58t-28.5 35t-52.5 17.5t-79.5 4.5h-112
v-292h127z" />
    <glyph glyph-name="uni040B" unicode="&#x40b;" horiz-adv-x="787" 
d="M722 0h-104v257q0 25 -4 45.5t-14 35t-27.5 22t-44.5 7.5q-35 0 -80 -15.5t-83 -42.5v-309h-104v658h-229v92h590v-92h-257v-267q38 24 88.5 43t98.5 19q92 0 131 -45t39 -121v-287z" />
    <glyph glyph-name="uni040C" unicode="&#x40c;" horiz-adv-x="678" 
d="M360 940h130l-113 -134h-105zM359 382l296 -382h-128l-252 331h-89v-331h-106v750h106v-325h94l226 325h120z" />
    <glyph glyph-name="uni040D" unicode="&#x40d;" horiz-adv-x="722" 
d="M451 806h-108l-110 134h130zM80 750h102v-601q8 25 20.5 51t27.5 52l294 498h118v-750h-102v606q-10 -29 -22.5 -57t-26.5 -51l-293 -498h-118v750z" />
    <glyph glyph-name="uni040E" unicode="&#x40e;" horiz-adv-x="549" 
d="M285 803q-32 0 -57 11t-43 30.5t-28 46t-11 56.5h63q2 -38 21 -60t55 -22q37 0 56 22t21 60h62q-1 -30 -11 -56.5t-27.5 -46t-43 -30.5t-57.5 -11zM260 0h-112l75 208l-215 542h118l131 -350q8 -21 15 -46.5t10 -44.5h1q3 18 10 43.5t15 47.5l122 350h113z" />
    <glyph glyph-name="uni040F" unicode="&#x40f;" horiz-adv-x="715" 
d="M532 750h105v-750h-230v-154h-100v154h-231v750h106v-656h350v656z" />
    <glyph glyph-name="uni0410" unicode="&#x410;" horiz-adv-x="688" 
d="M678 0h-116l-75 211h-296l-74 -211h-107l275 750h103zM224 305h228l-69 195q-13 35 -23.5 67.5t-21.5 71.5q-11 -39 -22 -72t-23 -67z" />
    <glyph glyph-name="uni0411" unicode="&#x411;" horiz-adv-x="657" 
d="M80 750h477v-96h-371v-190h179q63 0 109 -10.5t76 -34.5t44 -62.5t14 -94.5v-61q0 -56 -14 -94.5t-43.5 -62t-74 -34t-105.5 -10.5h-291v750zM359 93q78 0 110.5 23t32.5 74v78q0 29 -7.5 49t-26 32.5t-49.5 18t-78 5.5h-155v-280h173z" />
    <glyph glyph-name="uni0412" unicode="&#x412;" horiz-adv-x="657" 
d="M80 750h251q57 0 103 -7t78.5 -26t49.5 -53t17 -88v-38q0 -22 -4 -43.5t-14.5 -40.5t-28.5 -34.5t-47 -24.5q64 -13 93 -50t29 -91v-77q0 -54 -16 -88.5t-49.5 -54t-85 -27t-122.5 -7.5h-254v750zM186 347v-257h153q51 0 82.5 4.5t49 16t24 31.5t6.5 50v52
q0 56 -31.5 79.5t-114.5 23.5h-169zM186 660v-229h159q28 0 51.5 3.5t41 14t27 30.5t9.5 53v41q0 28 -6.5 45t-23 26.5t-44 12.5t-68.5 3h-146z" />
    <glyph glyph-name="uni0413" unicode="&#x413;" horiz-adv-x="580" 
d="M557 750v-96h-372v-654h-105v750h477z" />
    <glyph glyph-name="uni0414" unicode="&#x414;" horiz-adv-x="758" 
d="M638 0h-528v-154h-100v250h36q25 0 48.5 12t41.5 39t28.5 71t10.5 108v424h463v-654h100v-250h-100v154zM279 355q0 -50 -2 -87t-9.5 -67t-21.5 -55t-38 -50h326v559h-255v-300z" />
    <glyph glyph-name="uni0415" unicode="&#x415;" horiz-adv-x="611" 
d="M557 750v-95h-371v-221h338v-93h-338v-246h385v-95h-491v750h477z" />
    <glyph glyph-name="uni0416" unicode="&#x416;" horiz-adv-x="932" 
d="M519 425h48l201 325h120l-238 -367l277 -383h-129l-234 331h-45v-331h-106v331h-45l-234 -331h-129l276 383l-237 367h120l201 -325h48v325h106v-325z" />
    <glyph glyph-name="uni0417" unicode="&#x417;" horiz-adv-x="618" 
d="M194 339v90h112q69 0 97 32t28 94t-34 86.5t-112 24.5q-51 0 -105.5 -10.5t-99.5 -26.5v95q37 14 92.5 26t117.5 12q70 0 118 -13.5t77 -40t41.5 -65t12.5 -88.5q0 -22 -3.5 -47t-15.5 -48t-34 -43t-58 -31q72 -17 102 -61.5t30 -116.5q0 -107 -64.5 -162.5t-205.5 -55.5
q-33 0 -66 3t-63 8.5t-56 12t-45 14.5v96q21 -8 49 -15t58 -12t60.5 -8t57.5 -3q46 0 78 8.5t52 24.5t28.5 38.5t8.5 50.5q0 41 -10 66.5t-28.5 40t-46 19.5t-63.5 5h-110z" />
    <glyph glyph-name="uni0418" unicode="&#x418;" horiz-adv-x="722" 
d="M80 750h102v-601q8 25 20.5 51t27.5 52l294 498h118v-750h-102v606q-10 -29 -22.5 -57t-26.5 -51l-293 -498h-118v750z" />
    <glyph glyph-name="uni0419" unicode="&#x419;" horiz-adv-x="722" 
d="M80 750h102v-601q8 25 20.5 51t27.5 52l294 498h118v-750h-102v606q-10 -29 -22.5 -57t-26.5 -51l-293 -498h-118v750zM369 806q-32 0 -57 10.5t-43 29.5t-28 44t-12 54h73q5 -29 20 -46.5t47 -17.5q33 0 47.5 17.5t19.5 46.5h73q-1 -29 -11 -54t-28 -44t-43.5 -29.5
t-57.5 -10.5z" />
    <glyph glyph-name="uni041A" unicode="&#x41a;" horiz-adv-x="675" 
d="M359 382l296 -382h-128l-252 331h-89v-331h-106v750h106v-325h94l226 325h120z" />
    <glyph glyph-name="uni041B" unicode="&#x41b;" horiz-adv-x="713" 
d="M20 98h9q34 0 61.5 9.5t46 37.5t28.5 78t10 131v396h458v-750h-105v654h-249v-307q0 -92 -15 -157t-46 -107t-78 -61.5t-111 -19.5h-9v96z" />
    <glyph glyph-name="uni041C" unicode="&#x41c;" horiz-adv-x="867" 
d="M787 0h-106v512q0 29 3 69.5t8 78.5q-8 -40 -14.5 -80t-17.5 -71l-168 -509h-114l-173 510q-11 31 -17 64.5t-14 84.5q3 -37 5.5 -77.5t2.5 -70.5v-511h-102v750h141l187 -537q10 -28 17 -55.5t14 -59.5q6 32 13.5 60t15.5 54l175 538h144v-750z" />
    <glyph glyph-name="uni041D" unicode="&#x41d;" horiz-adv-x="734" 
d="M654 750v-750h-106v341h-362v-341h-106v750h106v-313h362v313h106z" />
    <glyph glyph-name="uni041E" unicode="&#x41e;" horiz-adv-x="752" 
d="M702 323q0 -163 -84 -249t-242 -86t-242 86t-84 249v104q0 162 84 248.5t242 86.5t242 -86.5t84 -248.5v-104zM595 421q0 67 -15.5 113.5t-44 75.5t-69 42.5t-90.5 13.5t-90.5 -13.5t-69 -42.5t-44 -75.5t-15.5 -113.5v-92q0 -67 15.5 -113.5t44 -76t69 -42.5t90.5 -13
t90.5 13t69 42.5t44 76t15.5 113.5v92z" />
    <glyph glyph-name="uni041F" unicode="&#x41f;" horiz-adv-x="734" 
d="M549 654h-364v-654h-105v750h574v-750h-105v654z" />
    <glyph glyph-name="uni0420" unicode="&#x420;" horiz-adv-x="647" 
d="M80 750h274q60 0 107.5 -7.5t81 -29.5t51.5 -62t18 -104v-47q0 -61 -16 -100t-49.5 -62t-85 -32t-122.5 -9h-153v-297h-106v750zM186 657v-269h148q53 0 86.5 5t52.5 17t26 32.5t7 52.5v63q0 27 -6.5 46t-23 30.5t-45 17t-72.5 5.5h-173z" />
    <glyph glyph-name="uni0421" unicode="&#x421;" horiz-adv-x="621" 
d="M570 647q-30 10 -80 15.5t-98 5.5q-79 0 -125 -18t-70 -48.5t-31 -71.5t-7 -86v-131q0 -47 5.5 -89t28.5 -73.5t69.5 -49.5t128.5 -18q40 0 89.5 4.5t100.5 20.5v-89q-22 -9 -48 -15t-52 -9.5t-51 -5t-45 -1.5q-92 0 -155.5 17t-103 55t-57 99t-17.5 150v122
q0 94 21 157.5t62.5 102t103.5 55t145 16.5q51 0 100 -5.5t86 -19.5v-90z" />
    <glyph glyph-name="uni0422" unicode="&#x422;" horiz-adv-x="622" 
d="M20 654v96h582v-96h-238v-654h-106v654h-238z" />
    <glyph glyph-name="uni0423" unicode="&#x423;" horiz-adv-x="549" 
d="M260 0h-112l75 208l-215 542h118l131 -350q8 -21 15 -46.5t10 -44.5h1q3 18 10 43.5t15 47.5l122 350h113z" />
    <glyph glyph-name="uni0424" unicode="&#x424;" horiz-adv-x="782" 
d="M444 762v-57q67 -3 122 -17t94 -45.5t60.5 -83.5t21.5 -131v-72q0 -57 -13.5 -106t-47 -86t-91.5 -60.5t-146 -29.5v-75h-105v75q-83 4 -140 24.5t-92 56t-51 86t-16 115.5v65q0 84 21.5 137.5t61 85.5t94.5 45.5t122 16.5v56h105zM142 414v-48q0 -56 12 -93.5t36 -60.5
t61 -33.5t88 -13.5v450q-51 -3 -88 -13.5t-61 -33.5t-36 -60.5t-12 -93.5zM640 366v48q0 56 -12 93t-36 60t-61 33.5t-87 13.5v-449q50 3 87 13.5t61 33t36 60t12 94.5z" />
    <glyph glyph-name="uni0425" unicode="&#x425;" horiz-adv-x="642" 
d="M388 207q-17 29 -32 55.5t-35 63.5q-20 -36 -36.5 -64t-32.5 -55l-120 -207h-118l233 385l-223 365h121l115 -204l28 -50t33 -60q9 18 17 32t15.5 27t15 25.5t15.5 26.5l115 203h119l-224 -365l234 -385h-120z" />
    <glyph glyph-name="uni0426" unicode="&#x426;" horiz-adv-x="745" 
d="M80 750h105v-654h335v654h105v-654h100v-250h-100v154h-545v750z" />
    <glyph glyph-name="uni0427" unicode="&#x427;" horiz-adv-x="714" 
d="M634 0h-106v353q-65 -42 -137 -63t-142 -21q-91 0 -140 39t-49 117v325h104v-301q0 -53 24 -72.5t72 -19.5q54 0 121.5 18t146.5 66v309h106v-750z" />
    <glyph glyph-name="uni0428" unicode="&#x428;" horiz-adv-x="917" 
d="M80 750h105v-654h220v654h105v-654h222v654h105v-750h-757v750z" />
    <glyph glyph-name="uni0429" unicode="&#x429;" horiz-adv-x="949" 
d="M80 750h105v-654h217v654h105v-654h217v654h105v-654h100v-250h-100v154h-749v750z" />
    <glyph glyph-name="uni042A" unicode="&#x42a;" horiz-adv-x="762" 
d="M209 0v654h-199v96h305v-256h154q63 0 109 -10.5t76 -34.5t44 -62.5t14 -94.5v-91q0 -56 -14 -94.5t-43.5 -62t-74 -34t-105.5 -10.5h-266zM463 93q78 0 110.5 23t32.5 74v108q0 29 -7.5 49t-26 32.5t-49.5 18t-78 5.5h-130v-310h148z" />
    <glyph glyph-name="uni042B" unicode="&#x42b;" horiz-adv-x="836" 
d="M80 0v750h106v-256h110q63 0 109 -10.5t76 -34.5t44 -62.5t14 -94.5v-91q0 -56 -14 -94.5t-43.5 -62t-74 -34t-105.5 -10.5h-222zM650 0v750h106v-750h-106zM290 93q78 0 110.5 23t32.5 74v108q0 29 -7.5 49t-26 32.5t-49.5 18t-78 5.5h-86v-310h104z" />
    <glyph glyph-name="uni042C" unicode="&#x42c;" horiz-adv-x="633" 
d="M80 0v750h106v-256h154q63 0 109 -10.5t76 -34.5t44 -62.5t14 -94.5v-91q0 -56 -14 -94.5t-43.5 -62t-74 -34t-105.5 -10.5h-266zM334 93q78 0 110.5 23t32.5 74v108q0 29 -7.5 49t-26 32.5t-49.5 18t-78 5.5h-130v-310h148z" />
    <glyph glyph-name="uni042D" unicode="&#x42d;" horiz-adv-x="621" 
d="M128 424h334v31q0 61 -14.5 101.5t-43.5 65.5t-73 35.5t-104 10.5q-53 0 -97 -5.5t-79 -15.5v90q22 8 46.5 13t49 7.5t47.5 3.5t41 1q84 0 147 -17t104.5 -55t62 -99.5t20.5 -151.5v-139q0 -73 -13.5 -130.5t-50 -98t-100 -62t-163.5 -21.5q-75 0 -123.5 9.5t-78.5 21.5
v89q35 -11 81 -18t108 -7q55 0 98.5 9t73.5 32t45.5 62t15.5 99v43h-334v96z" />
    <glyph glyph-name="uni042E" unicode="&#x42e;" horiz-adv-x="961" 
d="M911 313q0 -162 -74.5 -248.5t-231.5 -86.5t-231.5 86.5t-74.5 248.5v11h-114v-324h-105v762h105v-342h114v17q0 161 74.5 248t231.5 87t231.5 -87t74.5 -248v-124zM804 431q0 67 -12.5 113.5t-37 75.5t-62 42.5t-87.5 13.5t-87.5 -13.5t-62.5 -42.5t-37 -75.5
t-12 -113.5v-112q0 -67 12.5 -113.5t37 -76t62 -42.5t87.5 -13t87.5 13t62 42.5t37 76t12.5 113.5v112z" />
    <glyph glyph-name="uni042F" unicode="&#x42f;" horiz-adv-x="679" 
d="M599 750v-750h-106v306h-183l-169 -306h-111l174 315q-72 17 -104.5 62.5t-32.5 130.5v41q0 56 14 94.5t43.5 62t74 34t105.5 10.5h295zM173 502q0 -29 7.5 -49t26 -32.5t49.5 -18t78 -5.5h159v260h-177q-78 0 -110.5 -23t-32.5 -74v-58z" />
    <glyph glyph-name="uni0430" unicode="&#x430;" horiz-adv-x="554" 
d="M486 0h-89l-10 45q-14 -8 -36 -18t-47 -18t-52 -13.5t-51 -5.5q-81 0 -118 39t-37 123v18q0 49 17.5 81t50 50.5t79 25.5t104.5 7h86v29q0 31 -4 52.5t-16 35.5t-34.5 20.5t-58.5 6.5q-33 0 -76.5 -8t-83.5 -22v86q45 16 89.5 23t87.5 7q64 0 103.5 -16.5t60.5 -44
t28 -63.5t7 -76v-364zM383 120v135h-85q-44 0 -72.5 -4.5t-45 -15t-23.5 -29t-7 -46.5v-14q0 -40 17 -55t51 -15q13 0 34.5 3t45 9t46.5 14t39 18z" />
    <glyph glyph-name="uni0431" unicode="&#x431;" horiz-adv-x="643" 
d="M598 231q0 -55 -14.5 -99.5t-46.5 -76.5t-83.5 -49.5t-126.5 -17.5q-74 0 -125.5 16.5t-83.5 54t-46.5 98t-14.5 147.5v131q0 67 13 121t44.5 94.5t83.5 66.5t129 37q23 3 45 5.5t46 4t51.5 2.5t60.5 1v-90q-55 0 -105 -3.5t-90 -10.5q-50 -8 -83.5 -26t-53.5 -45
t-29 -61.5t-9 -75.5v-17q95 59 203 59q43 0 85 -9t75.5 -34t54 -70t20.5 -117v-36zM354 414q-49 0 -101.5 -15t-92.5 -38v-69q0 -63 11.5 -104.5t33.5 -67t53 -36t70 -10.5q78 0 122.5 40t44.5 128v13q0 47 -10 78t-28 49t-44 25t-59 7z" />
    <glyph glyph-name="uni0432" unicode="&#x432;" horiz-adv-x="557" 
d="M75 0v552h238q46 0 80 -6t56 -21.5t32.5 -41.5t10.5 -65v-26q0 -34 -14.5 -64.5t-47.5 -40.5q16 -3 31 -9.5t26.5 -19t18 -32.5t6.5 -48v-31q0 -82 -42 -114.5t-132 -32.5h-263zM316 86q28 0 46.5 3.5t29.5 11t15 20t4 31.5v20q0 36 -13.5 53.5t-58.5 17.5h-163v-157h140
zM296 317q28 0 46.5 3.5t29.5 11t15 20t4 31.5v13q0 21 -4 35t-16 22.5t-33 11.5t-55 3h-107v-151h120z" />
    <glyph glyph-name="uni0433" unicode="&#x433;" horiz-adv-x="472" 
d="M462 552v-88h-287v-464h-100v552h387z" />
    <glyph glyph-name="uni0434" unicode="&#x434;" horiz-adv-x="654" 
d="M537 0h-431v-154h-97v241h13q33 0 57 8t40 28t24 54t8 87v288h386v-465h97v-241h-97v154zM251 282q0 -24 -1 -52t-6.5 -55t-17.5 -50t-33 -38h244v378h-186v-183z" />
    <glyph glyph-name="uni0435" unicode="&#x435;" horiz-adv-x="576" 
d="M528 246h-371v-22q0 -33 6.5 -60.5t24 -46.5t49 -29.5t82.5 -10.5q32 0 74.5 5t82.5 19v-83q-35 -15 -80 -21.5t-81 -6.5q-68 0 -117.5 14.5t-81 45.5t-46.5 78t-15 113v62q0 69 17.5 118.5t49 81t74.5 46.5t94 15q55 0 99.5 -13.5t75 -45t47 -84t16.5 -129.5v-46z
M427 325v7q0 31 -7 57.5t-23 46.5t-42 31.5t-64 11.5q-36 0 -61.5 -11.5t-41.5 -31.5t-23.5 -46.5t-7.5 -57.5v-7h270z" />
    <glyph glyph-name="uni0436" unicode="&#x436;" horiz-adv-x="739" 
d="M321 329v223h97v-223h29l171 223h112l-214 -268l218 -284h-117l-181 244h-18v-244h-97v243h-18l-181 -243h-117l218 284l-214 268h112l171 -223h29z" />
    <glyph glyph-name="uni0437" unicode="&#x437;" horiz-adv-x="484" 
d="M135 253v77h85q51 0 74.5 17.5t23.5 52.5q0 36 -27.5 56.5t-86.5 20.5q-38 0 -79.5 -5t-73.5 -16v79q27 11 68.5 20t88.5 9q106 0 157.5 -38.5t51.5 -104.5q0 -45 -22.5 -78.5t-77.5 -47.5q64 -12 90.5 -44t26.5 -89q0 -36 -11.5 -68t-38.5 -55.5t-70 -37t-106 -13.5
q-50 0 -95 9t-73 20v75q33 -9 78 -15t86 -6q70 0 100.5 29t30.5 72q0 45 -31.5 63t-85.5 18h-83z" />
    <glyph glyph-name="uni0438" unicode="&#x438;" horiz-adv-x="614" 
d="M172 128q8 20 21 43.5t29 49.5l204 331h113v-552h-97v429q-11 -29 -23 -53.5t-29 -50.5l-204 -325h-111v552h97v-424z" />
    <glyph glyph-name="uni0439" unicode="&#x439;" horiz-adv-x="614" 
d="M315 606q-32 0 -57 10.5t-43 29.5t-28 44t-12 54h73q5 -29 20 -46.5t47 -17.5q33 0 47.5 17.5t19.5 46.5h73q-1 -29 -11 -54t-28 -44t-43.5 -29.5t-57.5 -10.5zM172 128q8 20 21 43.5t29 49.5l204 331h113v-552h-97v429q-11 -29 -23 -53.5t-29 -50.5l-204 -325h-111v552
h97v-424z" />
    <glyph glyph-name="uni043A" unicode="&#x43a;" horiz-adv-x="543" 
d="M75 552h97v-220h79l171 220h112l-214 -266l218 -286h-117l-181 242h-68v-242h-97v552z" />
    <glyph glyph-name="uni043B" unicode="&#x43b;" horiz-adv-x="605" 
d="M5 98h9q34 0 61.5 9.5t46 37.5t28.5 78t10 131v198h370v-552h-103v465h-168v-118q0 -92 -14.5 -157t-44 -107t-76 -61.5t-110.5 -19.5h-9v96z" />
    <glyph glyph-name="uni043C" unicode="&#x43c;" horiz-adv-x="734" 
d="M659 0h-100v378q0 20 1.5 47.5t4.5 54.5q-5 -27 -9.5 -55.5t-11.5 -48.5l-123 -376h-106l-127 377q-8 22 -12 46.5t-10 61.5q2 -26 4 -56t2 -52v-377h-97v552h150l125 -366q7 -20 12 -40.5t10 -43.5q9 44 21 83l120 367h146v-552z" />
    <glyph glyph-name="uni043D" unicode="&#x43d;" horiz-adv-x="603" 
d="M75 552h103v-220h247v220h103v-552h-103v245h-247v-245h-103v552z" />
    <glyph glyph-name="uni043E" unicode="&#x43e;" horiz-adv-x="599" 
d="M544 242q0 -121 -63.5 -186.5t-181.5 -65.5q-117 0 -180.5 65.5t-63.5 186.5v70q0 121 63.5 186.5t180.5 65.5q118 0 181.5 -65.5t63.5 -186.5v-70zM440 312q0 89 -37.5 127t-103.5 38q-65 0 -102.5 -38t-37.5 -127v-70q0 -89 37.5 -127t102.5 -38q66 0 103.5 38
t37.5 127v70z" />
    <glyph glyph-name="uni043F" unicode="&#x43f;" horiz-adv-x="605" 
d="M75 552h455v-552h-103v465h-249v-465h-103v552z" />
    <glyph glyph-name="uni0440" unicode="&#x440;" horiz-adv-x="615" 
d="M75 -216v768h92l10 -44q38 23 86.5 39.5t102.5 16.5q50 0 86 -16t59.5 -43t35 -63t11.5 -76v-146q0 -119 -60 -175t-178 -56q-13 0 -31.5 1.5t-38 5t-38.5 8t-34 10.5v-230h-103zM178 422v-322q30 -11 67.5 -17t66.5 -6q48 0 76 13t42.5 35t19 49.5t4.5 56.5v104
q0 33 -4.5 59t-17 43.5t-34 27t-55.5 9.5q-39 0 -84 -15t-81 -37z" />
    <glyph glyph-name="uni0441" unicode="&#x441;" horiz-adv-x="516" 
d="M458 541v-84q-24 8 -61.5 13.5t-76.5 5.5q-49 0 -80.5 -12.5t-49.5 -34.5t-24.5 -51.5t-6.5 -63.5v-76q0 -36 6 -65.5t23.5 -50t48.5 -32t82 -11.5q33 0 71 5t78 19v-86q-34 -16 -77.5 -22t-78.5 -6q-134 0 -195.5 60t-61.5 192v62q0 139 66.5 200t189.5 61q42 0 80 -5.5
t67 -17.5z" />
    <glyph glyph-name="uni0442" unicode="&#x442;" horiz-adv-x="477" 
d="M12 552h453v-87h-177v-465h-103v465h-173v87z" />
    <glyph glyph-name="uni0443" unicode="&#x443;" horiz-adv-x="540" 
d="M530 552l-286 -768h-103l79 217l-210 551h112l120 -346q7 -19 16 -49t15 -65h1q6 31 14.5 63.5t15.5 50.5l122 346h104z" />
    </font>
</defs>
</svg>
